  0
SECTION
  2
HEADER
  9
$ACADVER
  1
AC1021
  9
$ACADMAINTVER
 70
    25
  9
$DWGCODEPAGE
  3
ANSI_1250
  9
$LASTSAVEDBY
  1
JWilczek
  9
$INSBASE
 10
0.0
 20
0.0
 30
0.0
  9
$EXTMIN
 10
0.0
 20
0.0
 30
0.0
  9
$EXTMAX
 10
3.050000000000001
 20
2.998156985077132
 30
0.0
  9
$LIMMIN
 10
0.0
 20
0.0
  9
$LIMMAX
 10
420.0
 20
297.0
  9
$ORTHOMODE
 70
     1
  9
$REGENMODE
 70
     1
  9
$FILLMODE
 70
     1
  9
$QTEXTMODE
 70
     0
  9
$MIRRTEXT
 70
     1
  9
$LTSCALE
 40
1.0
  9
$ATTMODE
 70
     1
  9
$TEXTSIZE
 40
3.5
  9
$TRACEWID
 40
0.05
  9
$TEXTSTYLE
  7
STANDARD
  9
$CLAYER
  8
0
  9
$CELTYPE
  6
VONLAYER
  9
$CECOLOR
 62
     1
  9
$CELTSCALE
 40
1.0
  9
$DISPSILH
 70
     0
  9
$DIMSCALE
 40
1.0
  9
$DIMASZ
 40
0.18
  9
$DIMEXO
 40
0.0625
  9
$DIMDLI
 40
0.38
  9
$DIMRND
 40
0.0
  9
$DIMDLE
 40
0.0
  9
$DIMEXE
 40
0.18
  9
$DIMTP
 40
0.0
  9
$DIMTM
 40
0.0
  9
$DIMTXT
 40
0.18
  9
$DIMCEN
 40
0.09
  9
$DIMTSZ
 40
0.0
  9
$DIMTOL
 70
     0
  9
$DIMLIM
 70
     0
  9
$DIMTIH
 70
     1
  9
$DIMTOH
 70
     1
  9
$DIMSE1
 70
     0
  9
$DIMSE2
 70
     0
  9
$DIMTAD
 70
     0
  9
$DIMZIN
 70
     0
  9
$DIMBLK
  1

  9
$DIMASO
 70
     1
  9
$DIMSHO
 70
     1
  9
$DIMPOST
  1

  9
$DIMAPOST
  1

  9
$DIMALT
 70
     0
  9
$DIMALTD
 70
     2
  9
$DIMALTF
 40
25.0
  9
$DIMLFAC
 40
1.0
  9
$DIMTOFL
 70
     0
  9
$DIMTVP
 40
0.0
  9
$DIMTIX
 70
     0
  9
$DIMSOXD
 70
     0
  9
$DIMSAH
 70
     0
  9
$DIMBLK1
  1

  9
$DIMBLK2
  1

  9
$DIMSTYLE
  2
STANDARD
  9
$DIMCLRD
 70
     0
  9
$DIMCLRE
 70
     0
  9
$DIMCLRT
 70
     0
  9
$DIMTFAC
 40
1.0
  9
$DIMGAP
 40
0.09
  9
$DIMJUST
 70
     0
  9
$DIMSD1
 70
     0
  9
$DIMSD2
 70
     0
  9
$DIMTOLJ
 70
     1
  9
$DIMTZIN
 70
     0
  9
$DIMALTZ
 70
     0
  9
$DIMALTTZ
 70
     0
  9
$DIMUPT
 70
     0
  9
$DIMDEC
 70
     4
  9
$DIMTDEC
 70
     4
  9
$DIMALTU
 70
     2
  9
$DIMALTTD
 70
     2
  9
$DIMTXSTY
  7
STANDARD
  9
$DIMAUNIT
 70
     0
  9
$DIMADEC
 70
     0
  9
$DIMALTRND
 40
0.0
  9
$DIMAZIN
 70
     0
  9
$DIMDSEP
 70
     0
  9
$DIMATFIT
 70
     3
  9
$DIMFRAC
 70
     0
  9
$DIMLDRBLK
  1

  9
$DIMLUNIT
 70
     2
  9
$DIMLWD
 70
     0
  9
$DIMLWE
 70
     0
  9
$DIMTMOVE
 70
     0
  9
$DIMFXL
 40
1.0
  9
$DIMFXLON
 70
     0
  9
$DIMJOGANG
 40
0.7853981633974483
  9
$DIMTFILL
 70
     0
  9
$DIMTFILLCLR
 70
     0
  9
$DIMARCSYM
 70
     0
  9
$DIMLTYPE
  6

  9
$DIMLTEX1
  6

  9
$DIMLTEX2
  6

  9
$LUNITS
 70
     2
  9
$LUPREC
 70
     4
  9
$SKETCHINC
 40
0.1
  9
$FILLETRAD
 40
0.0
  9
$AUNITS
 70
     0
  9
$AUPREC
 70
     0
  9
$MENU
  1
acad
  9
$ELEVATION
 40
0.0
  9
$PELEVATION
 40
0.0
  9
$THICKNESS
 40
0.0
  9
$LIMCHECK
 70
     0
  9
$CHAMFERA
 40
0.0
  9
$CHAMFERB
 40
0.0
  9
$CHAMFERC
 40
0.0
  9
$CHAMFERD
 40
0.0
  9
$SKPOLY
 70
     0
  9
$TDCREATE
 40
2447893.083333333
  9
$TDUCREATE
 40
0.0
  9
$TDUPDATE
 40
2456951.583907697
  9
$TDUUPDATE
 40
2456951.500574363
  9
$TDINDWG
 40
0.0012291898
  9
$TDUSRTIMER
 40
2456951.499343171
  9
$USRTIMER
 70
     1
  9
$ANGBASE
 50
0.0
  9
$ANGDIR
 70
     0
  9
$PDMODE
 70
    35
  9
$PDSIZE
 40
-5.0
  9
$PLINEWID
 40
0.0
  9
$SPLFRAME
 70
     0
  9
$SPLINETYPE
 70
     6
  9
$SPLINESEGS
 70
     8
  9
$HANDSEED
  5
BC060000000001D9
  9
$SURFTAB1
 70
     6
  9
$SURFTAB2
 70
     6
  9
$SURFTYPE
 70
     6
  9
$SURFU
 70
     6
  9
$SURFV
 70
     6
  9
$UCSBASE
  2

  9
$UCSNAME
  2

  9
$UCSORG
 10
0.0
 20
0.0
 30
0.0
  9
$UCSXDIR
 10
1.0
 20
0.0
 30
0.0
  9
$UCSYDIR
 10
0.0
 20
1.0
 30
0.0
  9
$UCSORTHOREF
  2

  9
$UCSORTHOVIEW
 70
     0
  9
$UCSORGTOP
 10
0.0
 20
0.0
 30
0.0
  9
$UCSORGBOTTOM
 10
0.0
 20
0.0
 30
0.0
  9
$UCSORGLEFT
 10
0.0
 20
0.0
 30
0.0
  9
$UCSORGRIGHT
 10
0.0
 20
0.0
 30
0.0
  9
$UCSORGFRONT
 10
0.0
 20
0.0
 30
0.0
  9
$UCSORGBACK
 10
0.0
 20
0.0
 30
0.0
  9
$PUCSBASE
  2

  9
$PUCSNAME
  2

  9
$PUCSORG
 10
0.0
 20
0.0
 30
0.0
  9
$PUCSXDIR
 10
1.0
 20
0.0
 30
0.0
  9
$PUCSYDIR
 10
0.0
 20
1.0
 30
0.0
  9
$PUCSORTHOREF
  2

  9
$PUCSORTHOVIEW
 70
     0
  9
$PUCSORGTOP
 10
0.0
 20
0.0
 30
0.0
  9
$PUCSORGBOTTOM
 10
0.0
 20
0.0
 30
0.0
  9
$PUCSORGLEFT
 10
0.0
 20
0.0
 30
0.0
  9
$PUCSORGRIGHT
 10
0.0
 20
0.0
 30
0.0
  9
$PUCSORGFRONT
 10
0.0
 20
0.0
 30
0.0
  9
$PUCSORGBACK
 10
0.0
 20
0.0
 30
0.0
  9
$USERI1
 70
     0
  9
$USERI2
 70
     0
  9
$USERI3
 70
     0
  9
$USERI4
 70
     0
  9
$USERI5
 70
     0
  9
$USERR1
 40
0.0
  9
$USERR2
 40
0.0
  9
$USERR3
 40
0.0
  9
$USERR4
 40
0.0
  9
$USERR5
 40
0.0
  9
$WORLDVIEW
 70
     1
  9
$SHADEDGE
 70
     3
  9
$SHADEDIF
 70
    70
  9
$TILEMODE
 70
     1
  9
$MAXACTVP
 70
    64
  9
$PINSBASE
 10
0.0
 20
0.0
 30
0.0
  9
$PLIMCHECK
 70
     0
  9
$PEXTMIN
 10
1.000000000000000E+20
 20
1.000000000000000E+20
 30
1.000000000000000E+20
  9
$PEXTMAX
 10
-1.000000000000000E+20
 20
1.000000000000000E+20
 30
1.000000000000000E+20
  9
$PLIMMIN
 10
0.0
 20
0.0
  9
$PLIMMAX
 10
0.0
 20
0.0
  9
$UNITMODE
 70
     0
  9
$VISRETAIN
 70
     1
  9
$PLINEGEN
 70
     0
  9
$PSLTSCALE
 70
     1
  9
$TREEDEPTH
 70
  3020
  9
$CMLSTYLE
  2
Standard
  9
$CMLJUST
 70
     0
  9
$CMLSCALE
 40
1.0
  9
$PROXYGRAPHICS
 70
     1
  9
$MEASUREMENT
 70
     0
  9
$CELWEIGHT
370
     0
  9
$ENDCAPS
280
     0
  9
$JOINSTYLE
280
     0
  9
$LWDISPLAY
290
     0
  9
$INSUNITS
 70
     0
  9
$HYPERLINKBASE
  1

  9
$STYLESHEET
  1

  9
$XEDIT
290
     1
  9
$CEPSNTYPE
380
     0
  9
$PSTYLEMODE
290
     1
  9
$FINGERPRINTGUID
  2

  9
$VERSIONGUID
  2

  9
$EXTNAMES
290
     1
  9
$PSVPSCALE
 40
0.0
  9
$OLESTARTUP
290
     0
  9
$SORTENTS
280
   127
  9
$INDEXCTL
280
     0
  9
$HIDETEXT
280
     1
  9
$XCLIPFRAME
290
     0
  9
$HALOGAP
280
     0
  9
$OBSCOLOR
 70
   257
  9
$OBSLTYPE
280
     0
  9
$INTERSECTIONDISPLAY
280
     0
  9
$INTERSECTIONCOLOR
 70
   257
  9
$DIMASSOC
280
     2
  9
$PROJECTNAME
  1

  9
$CAMERADISPLAY
290
     0
  9
$LENSLENGTH
 40
50.0
  9
$CAMERAHEIGHT
 40
0.0
  9
$STEPSPERSEC
 40
2.0
  9
$STEPSIZE
 40
6.0
  9
$3DDWFPREC
 40
2.0
  9
$PSOLWIDTH
 40
0.25
  9
$PSOLHEIGHT
 40
4.0
  9
$LOFTANG1
 40
1.570796326794897
  9
$LOFTANG2
 40
1.570796326794897
  9
$LOFTMAG1
 40
0.0
  9
$LOFTMAG2
 40
0.0
  9
$LOFTPARAM
 70
     7
  9
$LOFTNORMALS
280
     1
  9
$LATITUDE
 40
37.795
  9
$LONGITUDE
 40
-122.394
  9
$NORTHDIRECTION
 40
0.0
  9
$TIMEZONE
 70
 -8000
  9
$LIGHTGLYPHDISPLAY
280
     1
  9
$TILEMODELIGHTSYNCH
280
     1
  9
$CMATERIAL
347
BC0600000000000B
  9
$SOLIDHIST
280
     1
  9
$SHOWHIST
280
     1
  9
$DWFFRAME
280
     2
  9
$DGNFRAME
280
     2
  9
$REALWORLDSCALE
290
     1
  9
$INTERFERECOLOR
 62
   256
  9
$CSHADOW
280
     0
  9
$SHADOWPLANELOCATION
 40
0.0
  0
ENDSEC
  0
SECTION
  2
CLASSES
  0
CLASS
  1
LWPOLYLINE
  2
AcDbPolyline
  3
ObjectDBX Classes
 90
        0
 91
        1
280
     0
281
     1
  0
CLASS
  1
IMAGE
  2
AcDbRasterImage
  3
ISM
 90
      127
 91
        6
280
     0
281
     1
  0
CLASS
  1
OLE2FRAME
  2
AcDbOle2Frame
  3
ObjectDBX Classes
 90
        0
 91
        1
280
     0
281
     1
  0
CLASS
  1
HATCH
  2
AcDbHatch
  3
ObjectDBX Classes
 90
        0
 91
        1
280
     0
281
     1
  0
CLASS
  1
DICTIONARYVAR
  2
AcDbDictionaryVar
  3
ObjectDBX Classes
 90
        0
 91
        5
280
     0
281
     0
  0
CLASS
  1
RASTERVARIABLES
  2
AcDbRasterVariables
  3
ISM
 90
        0
 91
       11
280
     0
281
     0
  0
CLASS
  1
IMAGEDEF
  2
AcDbRasterImageDef
  3
ISM
 90
        0
 91
        5
280
     0
281
     0
  0
CLASS
  1
IMAGEDEF_REACTOR
  2
AcDbRasterImageDefReactor
  3
ISM
 90
        1
 91
        5
280
     0
281
     0
  0
CLASS
  1
IDBUFFER
  2
AcDbIdBuffer
  3
ObjectDBX Classes
 90
        0
 91
        5
280
     0
281
     0
  0
CLASS
  1
SPATIAL_FILTER
  2
AcDbSpatialFilter
  3
ObjectDBX Classes
 90
        0
 91
        5
280
     0
281
     0
  0
CLASS
  1
XRECORD
  2
AcDbXrecord
  3
ObjectDBX Classes
 90
        0
 91
        1
280
     0
281
     0
  0
CLASS
  1
SORTENTSTABLE
  2
AcDbSortentsTable
  3
ObjectDBX Classes
 90
        0
 91
        5
280
     0
281
     0
  0
CLASS
  1
LAYER_INDEX
  2
AcDbLayerIndex
  3
ObjectDBX Classes
 90
        0
 91
        5
280
     0
281
     0
  0
CLASS
  1
SPATIAL_INDEX
  2
AcDbSpatialIndex
  3
AutoCAD 2000
 90
        0
 91
        5
280
     0
281
     0
  0
CLASS
  1
OBJECT_PTR
  2
CAseDLPNTableRecord
  3
ASE-LPNTableRecord
 90
        1
 91
        5
280
     0
281
     0
  0
CLASS
  1
LAYOUT
  2
AcDbLayout
  3
ObjectDBX Classes
 90
        0
 91
        1
280
     0
281
     0
  0
CLASS
  1
PLOTSETTINGS
  2
AcDbPlotSettings
  3
ObjectDBX Classes
 90
        0
 91
        5
280
     0
281
     0
  0
CLASS
  1
ACDBDICTIONARYWDFLT
  2
AcDbDictionaryWithDefault
  3
ObjectDBX Classes
 90
        0
 91
       11
280
     0
281
     0
  0
CLASS
  1
ACDBPLACEHOLDER
  2
AcDbPlaceHolder
  3
ObjectDBX Classes
 90
        0
 91
        1
280
     0
281
     0
  0
CLASS
  1
AEC_VARS_DWG_SETUP
  2
AecDbVarsDwgSetup
  3
AecBase60
 90
      129
 91
        5
280
     0
281
     0
  0
CLASS
  1
AEC_DISP_REP_2D_SECTION
  2
AecDbDispRep2dSection
  3
AecBase60
 90
      129
 91
        5
280
     0
281
     0
  0
CLASS
  1
AEC_DISP_PROPS_2D_SECTION
  2
AecDbDispProps2dSection
  3
AecBase60
 90
      129
 91
        5
280
     0
281
     0
  0
CLASS
  1
MATERIAL
  2
AcDbMaterial
  3
ObjectDBX Classes
 90
     1153
 91
       11
280
     0
281
     0
  0
CLASS
  1
AEC_DISP_REP_CLIP_VOLUME_MODEL
  2
AecDbDispRepClipVolModel
  3
AecBase60
 90
      129
 91
        7
280
     0
281
     0
  0
CLASS
  1
AEC_DISP_PROPS_CLIP_VOLUME
  2
AecDbDispPropsClipVol
  3
AecBase60
 90
      129
 91
        5
280
     0
281
     0
  0
CLASS
  1
AEC_DISP_REP_CLIP_VOLUME_PLAN
  2
AecDbDispRepClipVolPlan
  3
AecBase60
 90
      129
 91
        5
280
     0
281
     0
  0
CLASS
  1
AEC_DISP_REP_CLIP_VOLUME_RESULT
  2
AecDbDispRepClipVolResult
  3
AecBase60
 90
      129
 91
        7
280
     0
281
     0
  0
CLASS
  1
AEC_DISP_REP_CLIP_VOLUME_RESULT_SUBDIV
  2
AecDbDispRepClipVolResSubDiv
  3
AecBase60
 90
      129
 91
        6
280
     0
281
     0
  0
CLASS
  1
AEC_DISP_PROPS_CLIP_VOLUME_RESULT
  2
AecDbDispPropsClipVolResSubDiv
  3
AecBase60
 90
      129
 91
        5
280
     0
281
     0
  0
CLASS
  1
AEC_DISP_REP_DISPLAYTHEME
  2
AecDbDispRepDisplayTheme
  3
AecBase60
 90
      129
 91
        5
280
     0
281
     0
  0
CLASS
  1
AEC_DISP_PROPS_DISPLAYTHEME
  2
AecDbDispPropsDisplayTheme
  3
AecBase60
 90
      129
 91
        5
280
     0
281
     0
  0
CLASS
  1
AEC_DISP_REP_ENT_REF
  2
AecDbDispRepEntRef
  3
AecBase60
 90
      129
 91
        5
280
     0
281
     0
  0
CLASS
  1
AEC_DISP_PROPS_ENT_REF
  2
AecDbDispPropsEntRef
  3
AecBase60
 90
      129
 91
        5
280
     0
281
     0
  0
CLASS
  1
AEC_DISP_REP_LAYOUT_CURVE
  2
AecDbDispRepLayoutCurve
  3
AecBase60
 90
      129
 91
        5
280
     0
281
     0
  0
CLASS
  1
AEC_DISP_PROPS_LAYOUT_CURVE
  2
AecDbDispPropsLayoutCurve
  3
AecBase60
 90
      129
 91
        5
280
     0
281
     0
  0
CLASS
  1
AEC_DISP_REP_LAYOUT_GRID2D
  2
AecDbDispRepLayoutGrid2d
  3
AecBase60
 90
      129
 91
        6
280
     0
281
     0
  0
CLASS
  1
AEC_DISP_PROPS_LAYOUT_GRID2D
  2
AecDbDispPropsLayoutGrid2d
  3
AecBase60
 90
      129
 91
        6
280
     0
281
     0
  0
CLASS
  1
AEC_DISP_REP_LAYOUT_GRID3D
  2
AecDbDispRepLayoutGrid3d
  3
AecBase60
 90
      129
 91
        5
280
     0
281
     0
  0
CLASS
  1
AEC_DISP_PROPS_LAYOUT_GRID3D
  2
AecDbDispPropsLayoutGrid3d
  3
AecBase60
 90
      129
 91
        5
280
     0
281
     0
  0
CLASS
  1
AEC_DISP_REP_MASKBLOCK_REF
  2
AecDbDispRepMaskBlockRef
  3
AecBase60
 90
      129
 91
        6
280
     0
281
     0
  0
CLASS
  1
AEC_DISP_PROPS_MASKBLOCK
  2
AecDbDispPropsMaskBlock
  3
AecBase60
 90
      129
 91
        5
280
     0
281
     0
  0
CLASS
  1
AEC_DISP_REP_MASKBLOCK_REF_RCP
  2
AecDbDispRepMaskBlockRefRcp
  3
AecArchBase60
 90
      129
 91
        5
280
     0
281
     0
  0
CLASS
  1
AEC_DISP_REP_MASS_ELEM_MODEL
  2
AecDbDispRepMassElemModel
  3
AecBase60
 90
      129
 91
        5
280
     0
281
     0
  0
CLASS
  1
AEC_DISP_PROPS_MASS_ELEM_MODEL
  2
AecDbDispPropsMassElem
  3
AecBase60
 90
      129
 91
        6
280
     0
281
     0
  0
CLASS
  1
AEC_DISP_REP_MASS_ELEM_SCHEM
  2
AecDbDispRepMassElemSchem
  3
AecBase60
 90
      129
 91
        6
280
     0
281
     0
  0
CLASS
  1
AEC_DISPREPAECDBDISPREPMASSELEMPLAN50
  2
AecDbDispRepMassElemPlan50
  3
AecArchDACHBase60
 90
      129
 91
        5
280
     0
281
     0
  0
CLASS
  1
AEC_DISPROPSMASSELEMPLANCOMMON
  2
AecDbDispPropsMassElemPlanCommon
  3
AecArchDACHBase60
 90
      129
 91
        5
280
     0
281
     0
  0
CLASS
  1
AEC_DISPREPAECDBDISPREPMASSELEMPLAN100
  2
AecDbDispRepMassElemPlan100
  3
AecArchDACHBase60
 90
      129
 91
        5
280
     0
281
     0
  0
CLASS
  1
AEC_DISP_REP_MASS_ELEM_RCP
  2
AecDbDispRepMassElemRcp
  3
AecArchBase60
 90
      129
 91
        5
280
     0
281
     0
  0
CLASS
  1
AEC_DISP_REP_MASS_GROUP_MODEL
  2
AecDbDispRepMassGroupModel
  3
AecBase60
 90
      129
 91
        5
280
     0
281
     0
  0
CLASS
  1
AEC_DISP_PROPS_MASS_GROUP
  2
AecDbDispPropsMassGroup
  3
AecBase60
 90
      129
 91
        6
280
     0
281
     0
  0
CLASS
  1
AEC_DISP_REP_MASS_GROUP_PLAN
  2
AecDbDispRepMassGroupPlan
  3
AecBase60
 90
      129
 91
        9
280
     0
281
     0
  0
CLASS
  1
AEC_DISPREPAECDBDISPREPMASSGROUPPLAN50
  2
AecDbDispRepMassGroupPlan50
  3
AecArchDACHBase60
 90
      129
 91
        5
280
     0
281
     0
  0
CLASS
  1
AEC_DISPROPSMASSGROUPPLANCOMMON
  2
AecDbDispPropsMassGroupPlanCommon
  3
AecArchDACHBase60
 90
      129
 91
        5
280
     0
281
     0
  0
CLASS
  1
AEC_DISPREPAECDBDISPREPMASSGROUPPLAN100
  2
AecDbDispRepMassGroupPlan100
  3
AecArchDACHBase60
 90
      129
 91
        5
280
     0
281
     0
  0
CLASS
  1
AEC_DISP_REP_MASS_GROUP_RCP
  2
AecDbDispRepMassGroupRcp
  3
AecArchBase60
 90
      129
 91
        5
280
     0
281
     0
  0
CLASS
  1
AEC_DISP_REP_MVBLOCK_REF
  2
AecDbDispRepMvBlockRef
  3
AecBase60
 90
      129
 91
        9
280
     0
281
     0
  0
CLASS
  1
AEC_DISP_REP_MVBLOCK_REF_MODEL
  2
AecDbDispRepMvBlockRefModel
  3
AecBase60
 90
      129
 91
        5
280
     0
281
     0
  0
CLASS
  1
AEC_AECDBDISPREPMVBLOCKREFPLAN100
  2
AecDbDispRepMvBlockRefPlan100
  3
AecBase60
 90
      129
 91
        5
280
     0
281
     0
  0
CLASS
  1
AEC_AECDBDISPREPMVBLOCKREFPLAN50
  2
AecDbDispRepMvBlockRefPlan50
  3
AecBase60
 90
      129
 91
        5
280
     0
281
     0
  0
CLASS
  1
AEC_DISP_REP_POLYGON_MODEL
  2
AecDbDispRepPolygonModel
  3
AecBase60
 90
      129
 91
        5
280
     0
281
     0
  0
CLASS
  1
AEC_DISP_PROPS_POLYGON_MODEL
  2
AecDbDispPropsPolygonModel
  3
AecBase60
 90
      129
 91
        5
280
     0
281
     0
  0
CLASS
  1
AEC_DISP_REP_POLYGON_TRUECOLOUR
  2
AecDbDispRepPolygonTrueColour
  3
AecBase60
 90
      129
 91
        5
280
     0
281
     0
  0
CLASS
  1
AEC_DISP_PROPS_POLYGON_TRUECOLOUR
  2
AecDbDispPropsPolygonTrueColour
  3
AecBase60
 90
      129
 91
        5
280
     0
281
     0
  0
CLASS
  1
AEC_DISP_REP_SLICE
  2
AecDbDispRepSlice
  3
AecBase60
 90
      129
 91
        5
280
     0
281
     0
  0
CLASS
  1
AEC_DISP_PROPS_SLICE
  2
AecDbDispPropsSlice
  3
AecBase60
 90
      129
 91
        5
280
     0
281
     0
  0
CLASS
  1
AEC_DISP_REP_ANCHOR
  2
AecDbDispRepAnchor
  3
AecBase60
 90
      129
 91
        5
280
     0
281
     0
  0
CLASS
  1
AEC_DISP_REP_ANCHOR_ENT_TO_NODE
  2
AecDbDispRepAnchorEntToNode
  3
AecBase60
 90
      129
 91
        5
280
     0
281
     0
  0
CLASS
  1
AEC_DISP_PROPS_ENT
  2
AecDbDispPropsEnt
  3
AecBase60
 90
      129
 91
        5
280
     0
281
     0
  0
CLASS
  1
AEC_DISP_REP_MATERIAL
  2
AecDbDispRepMaterial
  3
AecBase60
 90
      129
 91
        5
280
     0
281
     0
  0
CLASS
  1
AEC_DISP_PROPS_MATERIAL
  2
AecDbDispPropsMaterial
  3
AecBase60
 90
      129
 91
        5
280
     0
281
     0
  0
CLASS
  1
AEC_DISP_REP_EDITINPLACEPROFILE
  2
AecDbDispRepEditInPlaceProfile
  3
AecBase60
 90
      129
 91
        5
280
     0
281
     0
  0
CLASS
  1
AEC_DISP_PROPS_EDITINPLACEPROFILE_MODEL
  2
AecDbDispPropsEditInPlaceProfile
  3
AecBase60
 90
      129
 91
        5
280
     0
281
     0
  0
CLASS
  1
VISUALSTYLE
  2
AcDbVisualStyle
  3
ObjectDBX Classes
 90
     4095
 91
       11
280
     0
281
     0
  0
CLASS
  1
SCALE
  2
AcDbScale
  3
ObjectDBX Classes
 90
     1153
 91
       11
280
     0
281
     0
  0
CLASS
  1
TABLESTYLE
  2
AcDbTableStyle
  3
ObjectDBX Classes
 90
     4095
 91
       11
280
     0
281
     0
  0
CLASS
  1
SUN
  2
AcDbSun
  3
SCENEOE
 90
     1153
 91
       11
280
     0
281
     0
  0
CLASS
  1
CELLSTYLEMAP
  2
AcDbCellStyleMap
  3
ObjectDBX Classes
 90
     1152
 91
        5
280
     0
281
     0
  0
ENDSEC
  0
SECTION
  2
TABLES
  0
TABLE
  2
VPORT
  5
11EBB
330
0
100
AcDbSymbolTable
 70
     2
  0
VPORT
  5
11CBF
330
11EBB
100
AcDbSymbolTableRecord
100
AcDbViewportTableRecord
  2
*ACTIVE
 70
     0
 10
0.0
 20
0.0
 11
1.0
 21
1.0
 12
36.0932324386211
 22
49.78001237615393
 13
0.0
 23
0.0
 14
1.0
 24
1.0
 15
0.0
 25
0.0
 16
0.0
 26
0.0
 36
1.0
 17
0.0
 27
0.0
 37
0.0
 40
236.8821347531523
 41
1.304926764314248
 42
50.0
 43
0.0
 44
0.0
 50
0.0
 51
0.0
 71
    16
 72
   100
 73
     1
 74
     1
 75
     0
 76
     0
 77
     0
 78
     0
281
     0
 65
     0
110
0.0
120
0.0
130
0.0
111
1.0
121
0.0
131
0.0
112
0.0
122
1.0
132
0.0
 79
     0
146
0.0
348
BC0600000000004D
 60
     3
 61
     5
292
     1
282
     1
141
0.0
142
0.0
 63
   250
361
BC06000000000086
  0
ENDTAB
  0
TABLE
  2
LTYPE
  5
11EB8
330
0
100
AcDbSymbolTable
 70
     2
  0
LTYPE
  5
11C73
330
11EB8
100
AcDbSymbolTableRecord
100
AcDbLinetypeTableRecord
  2
ByBlock
 70
     0
  3

 72
    65
 73
     0
 40
0.0
  0
LTYPE
  5
11C74
330
11EB8
100
AcDbSymbolTableRecord
100
AcDbLinetypeTableRecord
  2
ByLayer
 70
     0
  3

 72
    65
 73
     0
 40
0.0
  0
LTYPE
  5
11C75
330
11EB8
100
AcDbSymbolTableRecord
100
AcDbLinetypeTableRecord
  2
CONTINUOUS
 70
     0
  3
Solid line
 72
    65
 73
     0
 40
0.0
  0
LTYPE
  5
11C8F
330
11EB8
100
AcDbSymbolTableRecord
100
AcDbLinetypeTableRecord
  2
VONLAYER
 70
     0
  3
Solid line
 72
    65
 73
     0
 40
0.0
  0
ENDTAB
  0
TABLE
  2
LAYER
  5
11EB6
330
0
100
AcDbSymbolTable
 70
    27
  0
LAYER
  5
11C70
330
11EB6
100
AcDbSymbolTableRecord
100
AcDbLayerTableRecord
  2
0
 70
     0
 62
     7
  6
CONTINUOUS
370
    -3
390
11ED1
347
BC0600000000000D
  0
LAYER
  5
11C99
330
11EB6
100
AcDbSymbolTableRecord
100
AcDbLayerTableRecord
  2
PVC_INSIDE
 70
     0
 62
     7
  6
CONTINUOUS
370
    -3
390
11ED1
347
BC0600000000000D
  0
LAYER
  5
11C9A
330
11EB6
100
AcDbSymbolTableRecord
100
AcDbLayerTableRecord
  2
PVC_OUTSIDE
 70
     0
 62
     7
  6
CONTINUOUS
370
    -3
390
11ED1
347
BC0600000000000D
  0
LAYER
  5
11C9B
330
11EB6
100
AcDbSymbolTableRecord
100
AcDbLayerTableRecord
  2
ASSEMBLY
 70
     1
 62
     7
  6
CONTINUOUS
370
    -3
390
11ED1
347
BC0600000000000D
  0
LAYER
  5
11C9D
330
11EB6
100
AcDbSymbolTableRecord
100
AcDbLayerTableRecord
  2
DEFPOINTS
 70
     0
 62
     7
  6
CONTINUOUS
290
     0
370
    -3
390
11ED1
347
BC0600000000000D
  0
LAYER
  5
11CED
330
11EB6
100
AcDbSymbolTableRecord
100
AcDbLayerTableRecord
  2
PR_DIMENSION
 70
     0
 62
     7
  6
CONTINUOUS
370
    -3
390
11ED1
347
BC0600000000000D
  0
LAYER
  5
11D29
330
11EB6
100
AcDbSymbolTableRecord
100
AcDbLayerTableRecord
  2
GASKET_INSIDE
 70
     0
 62
     7
  6
CONTINUOUS
370
    -3
390
11ED1
347
BC0600000000000D
  0
LAYER
  5
11D2B
330
11EB6
100
AcDbSymbolTableRecord
100
AcDbLayerTableRecord
  2
GASKET_OUTSIDE
 70
     0
 62
     7
  6
CONTINUOUS
370
    -3
390
11ED1
347
BC0600000000000D
  0
LAYER
  5
11D59
330
11EB6
100
AcDbSymbolTableRecord
100
AcDbLayerTableRecord
  2
HATCH_ALU
 70
     0
 62
     7
  6
CONTINUOUS
370
    -3
390
11ED1
347
BC0600000000000D
  0
LAYER
  5
11D5E
330
11EB6
100
AcDbSymbolTableRecord
100
AcDbLayerTableRecord
  2
ALU_OUTSIDE
 70
     0
 62
     7
  6
CONTINUOUS
370
    -3
390
11ED1
347
BC0600000000000D
  0
LAYER
  5
11D6A
330
11EB6
100
AcDbSymbolTableRecord
100
AcDbLayerTableRecord
  2
HATCH_GASKET
 70
     0
 62
     7
  6
CONTINUOUS
370
    -3
390
11ED1
347
BC0600000000000D
  0
LAYER
  5
11D9A
330
11EB6
100
AcDbSymbolTableRecord
100
AcDbLayerTableRecord
  2
STEEL_INSIDE
 70
     0
 62
     7
  6
CONTINUOUS
370
    -3
390
11ED1
347
BC0600000000000D
  0
LAYER
  5
11D9C
330
11EB6
100
AcDbSymbolTableRecord
100
AcDbLayerTableRecord
  2
STEEL_OUTSIDE
 70
     0
 62
     7
  6
CONTINUOUS
370
    -3
390
11ED1
347
BC0600000000000D
  0
LAYER
  5
11D9E
330
11EB6
100
AcDbSymbolTableRecord
100
AcDbLayerTableRecord
  2
HATCH_STEEL
 70
     0
 62
     7
  6
CONTINUOUS
370
    -3
390
11ED1
347
BC0600000000000D
  0
LAYER
  5
11DB6
330
11EB6
100
AcDbSymbolTableRecord
100
AcDbLayerTableRecord
  2
GLAS_G4
 70
     0
 62
     7
  6
CONTINUOUS
370
    -3
390
11ED1
347
BC0600000000000D
  0
LAYER
  5
11DB8
330
11EB6
100
AcDbSymbolTableRecord
100
AcDbLayerTableRecord
  2
HATCH_GLAS
 70
     0
 62
     7
  6
CONTINUOUS
370
    -3
390
11ED1
347
BC0600000000000D
  0
LAYER
  5
11DC3
330
11EB6
100
AcDbSymbolTableRecord
100
AcDbLayerTableRecord
  2
GLAS_G2
 70
     0
 62
     7
  6
CONTINUOUS
370
    -3
390
11ED1
347
BC0600000000000D
  0
LAYER
  5
11DCD
330
11EB6
100
AcDbSymbolTableRecord
100
AcDbLayerTableRecord
  2
GLAS_G0
 70
     0
 62
     7
  6
CONTINUOUS
370
    -3
390
11ED1
347
BC0600000000000D
  0
LAYER
  5
11DE0
330
11EB6
100
AcDbSymbolTableRecord
100
AcDbLayerTableRecord
  2
GLASDISTANCER_WARM
 70
     0
 62
     7
  6
CONTINUOUS
370
    -3
390
11ED1
347
BC0600000000000D
  0
LAYER
  5
11DE9
330
11EB6
100
AcDbSymbolTableRecord
100
AcDbLayerTableRecord
  2
GLASDISTANCER_INSIDE
 70
     0
 62
     7
  6
CONTINUOUS
370
    -3
390
11ED1
347
BC0600000000000D
  0
LAYER
  5
11DF2
330
11EB6
100
AcDbSymbolTableRecord
100
AcDbLayerTableRecord
  2
GLAS_GASKET_WARM
 70
     0
 62
     7
  6
CONTINUOUS
370
    -3
390
11ED1
347
BC0600000000000D
  0
LAYER
  5
11DFC
330
11EB6
100
AcDbSymbolTableRecord
100
AcDbLayerTableRecord
  2
GLAS_L3
 70
     0
 62
     7
  6
CONTINUOUS
370
    -3
390
11ED1
347
BC0600000000000D
  0
LAYER
  5
11E21
330
11EB6
100
AcDbSymbolTableRecord
100
AcDbLayerTableRecord
  2
GLAS_L1
 70
     0
 62
     7
  6
CONTINUOUS
370
    -3
390
11ED1
347
BC0600000000000D
  0
LAYER
  5
11E2D
330
11EB6
100
AcDbSymbolTableRecord
100
AcDbLayerTableRecord
  2
GLASABSTANDSHALTER
 70
     0
 62
     7
  6
CONTINUOUS
370
    -3
390
11ED1
347
BC0600000000000D
  0
LAYER
  5
11E3E
330
11EB6
100
AcDbSymbolTableRecord
100
AcDbLayerTableRecord
  2
DIM_PROFILE
 70
     0
 62
     2
  6
CONTINUOUS
370
    -3
390
11ED1
347
BC0600000000000D
  0
LAYER
  5
11EB3
330
11EB6
100
AcDbSymbolTableRecord
100
AcDbLayerTableRecord
  2
PR_CONTOUR
 70
     0
 62
     7
  6
CONTINUOUS
370
    -3
390
11ED1
347
BC0600000000000D
  0
LAYER
  5
BC06000000000151
330
11EB6
100
AcDbSymbolTableRecord
100
AcDbLayerTableRecord
  2
0.00000
 70
     0
 62
     7
  6
CONTINUOUS
370
    -3
390
11ED1
347
BC0600000000000D
  0
ENDTAB
  0
TABLE
  2
STYLE
  5
11EB7
330
0
100
AcDbSymbolTable
 70
     1
  0
STYLE
  5
11C71
330
11EB7
100
AcDbSymbolTableRecord
100
AcDbTextStyleTableRecord
  2
STANDARD
 70
     0
 40
0.0
 41
1.0
 50
0.0
 71
     0
 42
0.2
  3
TXT.SHX
  4

  0
ENDTAB
  0
TABLE
  2
VIEW
  5
11EB9
330
0
100
AcDbSymbolTable
 70
     0
  0
ENDTAB
  0
TABLE
  2
UCS
  5
11EBA
330
0
100
AcDbSymbolTable
 70
     0
  0
ENDTAB
  0
TABLE
  2
APPID
  5
11EBC
330
0
100
AcDbSymbolTable
 70
    14
  0
APPID
  5
11C72
330
11EBC
100
AcDbSymbolTableRecord
100
AcDbRegAppTableRecord
  2
ACAD
 70
     0
  0
APPID
  5
11C91
330
11EBC
100
AcDbSymbolTableRecord
100
AcDbRegAppTableRecord
  2
DCO15
 70
     0
  0
APPID
  5
11C92
330
11EBC
100
AcDbSymbolTableRecord
100
AcDbRegAppTableRecord
  2
AVE_RENDER
 70
     0
  0
APPID
  5
11C93
330
11EBC
100
AcDbSymbolTableRecord
100
AcDbRegAppTableRecord
  2
AVE_ENTITY_MATERIAL
 70
     0
  0
APPID
  5
11C94
330
11EBC
100
AcDbSymbolTableRecord
100
AcDbRegAppTableRecord
  2
AVE_FINISH
 70
     0
  0
APPID
  5
11C95
330
11EBC
100
AcDbSymbolTableRecord
100
AcDbRegAppTableRecord
  2
AVE_MATERIAL
 70
     0
  0
APPID
  5
11C96
330
11EBC
100
AcDbSymbolTableRecord
100
AcDbRegAppTableRecord
  2
AVE_GLOBAL
 70
     0
  0
APPID
  5
11CDD
330
11EBC
100
AcDbSymbolTableRecord
100
AcDbRegAppTableRecord
  2
ACDBDYNAMICBLOCKGUID
 70
     0
  0
APPID
  5
11CEB
330
11EBC
100
AcDbSymbolTableRecord
100
AcDbRegAppTableRecord
  2
PRJ_JOIN
 70
     0
  0
APPID
  5
11D5A
330
11EBC
100
AcDbSymbolTableRecord
100
AcDbRegAppTableRecord
  2
GRADIENTCOLOR1ACI
 70
     0
  0
APPID
  5
11D5B
330
11EBC
100
AcDbSymbolTableRecord
100
AcDbRegAppTableRecord
  2
GRADIENTCOLOR2ACI
 70
     0
  0
APPID
  5
BC06000000000001
330
11EBC
100
AcDbSymbolTableRecord
100
AcDbRegAppTableRecord
  2
AECBASE
 70
     0
  0
APPID
  5
BC06000000000002
330
11EBC
100
AcDbSymbolTableRecord
100
AcDbRegAppTableRecord
  2
AEC_2DSECTION_XDATA
 70
     0
  0
APPID
  5
BC06000000000003
330
11EBC
100
AcDbSymbolTableRecord
100
AcDbRegAppTableRecord
  2
AEC_MASSGROUP_XDADA
 70
     0
  0
ENDTAB
  0
TABLE
  2
DIMSTYLE
  5
11EBD
330
0
100
AcDbSymbolTable
 70
     2
100
AcDbDimStyleTable
  0
DIMSTYLE
105
11C97
330
11EBD
100
AcDbSymbolTableRecord
100
AcDbDimStyleTableRecord
  2
STANDARD
 70
     0
 41
3.0
 44
0.0
 77
     1
140
3.0
147
2.0
178
     0
271
     0
340
11C71
  0
DIMSTYLE
105
11CEE
102
{ACAD_REACTORS
330
BC0600000000008A
330
BC0600000000008B
330
BC0600000000008C
330
BC0600000000008D
330
BC0600000000008E
330
BC0600000000008F
102
}
330
11EBD
100
AcDbSymbolTableRecord
100
AcDbDimStyleTableRecord
  2
DS_ADVERT
 70
     0
 40
0.0
 41
3.0
 42
0.0
 43
0.0
 44
0.0
 73
     0
 74
     0
 77
     1
140
5.0
141
0.0
147
2.0
171
     0
173
     1
178
     0
271
     0
274
     0
283
     0
289
     0
340
11C71
  0
ENDTAB
  0
TABLE
  2
BLOCK_RECORD
  5
11EB5
330
0
100
AcDbSymbolTable
 70
    41
  0
BLOCK_RECORD
  5
11EBF
330
11EB5
100
AcDbSymbolTableRecord
100
AcDbBlockTableRecord
  2
*MODEL_SPACE
340
11ED4
 70
     0
280
     1
281
     0
  0
BLOCK_RECORD
  5
11EC0
330
11EB5
100
AcDbSymbolTableRecord
100
AcDbBlockTableRecord
  2
*PAPER_SPACE
340
11ED5
 70
     0
280
     1
281
     0
  0
BLOCK_RECORD
  5
11CAF
330
11EB5
100
AcDbSymbolTableRecord
100
AcDbBlockTableRecord
  2
BASIS
340
0
102
{BLKREFS
331
11D27
331
11D51
331
11D8F
331
11D92
331
11D98
331
11E26
331
11E33
331
11E4A
331
11CE9
331
11CB6
331
BC06000000000088
331
BC06000000000097
331
BC060000000000BC
331
BC060000000000DA
331
BC0600000000010E
331
0
102
}
 70
     0
280
     1
281
     0
  0
BLOCK_RECORD
  5
11CC0
330
11EB5
100
AcDbSymbolTableRecord
100
AcDbBlockTableRecord
  2
INSERT_MULTIPOS_0
340
0
102
{BLKREFS
331
11CC3
102
}
 70
     0
280
     1
281
     0
  0
BLOCK_RECORD
  5
11CC5
330
11EB5
100
AcDbSymbolTableRecord
100
AcDbBlockTableRecord
  2
GLASLEISTE
340
0
102
{BLKREFS
331
11E4B
331
BC06000000000098
331
BC060000000000BD
102
}
 70
     0
280
     1
281
     0
  0
BLOCK_RECORD
  5
11CC6
330
11EB5
100
AcDbSymbolTableRecord
100
AcDbBlockTableRecord
  2
VERKLOTZUNG
340
0
102
{BLKREFS
331
11E4C
331
BC06000000000099
331
BC060000000000BE
102
}
 70
     0
280
     1
281
     0
  0
BLOCK_RECORD
  5
11CC7
330
11EB5
100
AcDbSymbolTableRecord
100
AcDbBlockTableRecord
  2
STAHL1
340
0
102
{BLKREFS
331
11E4D
331
BC0600000000009A
331
BC060000000000BF
102
}
 70
     0
280
     1
281
     0
  0
BLOCK_RECORD
  5
11CC8
330
11EB5
100
AcDbSymbolTableRecord
100
AcDbBlockTableRecord
  2
ALU-VSS
340
0
102
{BLKREFS
331
11E4E
331
BC0600000000009B
331
BC060000000000C0
102
}
 70
     0
280
     1
281
     0
  0
BLOCK_RECORD
  5
11CC9
330
11EB5
100
AcDbSymbolTableRecord
100
AcDbBlockTableRecord
  2
DICHTUNG_AD
340
0
102
{BLKREFS
331
11E50
331
BC0600000000009D
331
BC060000000000C2
102
}
 70
     0
280
     1
281
     0
  0
BLOCK_RECORD
  5
11CCA
330
11EB5
100
AcDbSymbolTableRecord
100
AcDbBlockTableRecord
  2
DICHTUNG_GD
340
0
102
{BLKREFS
331
11E4F
331
BC0600000000009C
331
BC060000000000C1
102
}
 70
     0
280
     1
281
     0
  0
BLOCK_RECORD
  5
11CCB
330
11EB5
100
AcDbSymbolTableRecord
100
AcDbBlockTableRecord
  2
DIM_FLUEGEL_AUSSEN_OBEN
340
0
102
{BLKREFS
331
11E47
331
BC06000000000094
331
BC060000000000B9
102
}
 70
     0
280
     1
281
     0
  0
BLOCK_RECORD
  5
11CCC
330
11EB5
100
AcDbSymbolTableRecord
100
AcDbBlockTableRecord
  2
DIM_FLUEGEL_INNEN_OBEN
340
0
102
{BLKREFS
331
11E48
331
BC06000000000095
331
BC060000000000BA
102
}
 70
     0
280
     1
281
     0
  0
BLOCK_RECORD
  5
11CCD
330
11EB5
100
AcDbSymbolTableRecord
100
AcDbBlockTableRecord
  2
DIM_FLUEGEL_INNEN_UNTEN
340
0
102
{BLKREFS
331
11E49
331
BC06000000000096
331
BC060000000000BB
102
}
 70
     0
280
     1
281
     0
  0
BLOCK_RECORD
  5
11CCE
330
11EB5
100
AcDbSymbolTableRecord
100
AcDbBlockTableRecord
  2
DIM_FLUEGEL_AUSSEN_UNTEN
340
0
102
{BLKREFS
331
11E51
331
BC0600000000009E
331
BC060000000000C3
102
}
 70
     0
280
     1
281
     0
  0
BLOCK_RECORD
  5
11CCF
330
11EB5
100
AcDbSymbolTableRecord
100
AcDbBlockTableRecord
  2
PRJ_INSERT_18_384038131086
340
0
102
{BLKREFS
331
11E62
331
BC060000000000AF
331
BC060000000000D4
102
}
 70
     0
280
     1
281
     0
  0
BLOCK_RECORD
  5
11CD0
330
11EB5
100
AcDbSymbolTableRecord
100
AcDbBlockTableRecord
  2
FLUEGEL
340
0
102
{BLKREFS
331
11D52
331
BC060000000000DB
331
BC0600000000010F
102
}
 70
     0
280
     1
281
     0
  0
BLOCK_RECORD
  5
11CD1
330
11EB5
100
AcDbSymbolTableRecord
100
AcDbBlockTableRecord
  2
VERBREITERUNG
340
0
102
{BLKREFS
331
11D55
331
BC060000000000DE
331
BC06000000000112
102
}
 70
     0
280
     1
281
     0
  0
BLOCK_RECORD
  5
11CD2
330
11EB5
100
AcDbSymbolTableRecord
100
AcDbBlockTableRecord
  2
DIM_RAHMEN_AUSSEN_UNTEN
340
0
102
{BLKREFS
331
11D57
331
BC060000000000E0
331
BC06000000000114
102
}
 70
     0
280
     1
281
     0
  0
BLOCK_RECORD
  5
11CD3
330
11EB5
100
AcDbSymbolTableRecord
100
AcDbBlockTableRecord
  2
DIM_RAHMEN_INNEN_OBEN
340
0
102
{BLKREFS
331
11D53
331
BC060000000000DC
331
BC06000000000110
102
}
 70
     0
280
     1
281
     0
  0
BLOCK_RECORD
  5
11CD4
330
11EB5
100
AcDbSymbolTableRecord
100
AcDbBlockTableRecord
  2
DIM_RAHMEN_INNEN_UNTEN
340
0
102
{BLKREFS
331
11D54
331
BC060000000000DD
331
BC06000000000111
102
}
 70
     0
280
     1
281
     0
  0
BLOCK_RECORD
  5
11CD5
330
11EB5
100
AcDbSymbolTableRecord
100
AcDbBlockTableRecord
  2
DIM_RAHMEN_AUSSEN_OBEN
340
0
102
{BLKREFS
331
11D56
331
BC060000000000DF
331
BC06000000000113
102
}
 70
     0
280
     1
281
     0
  0
BLOCK_RECORD
  5
11CD6
330
11EB5
100
AcDbSymbolTableRecord
100
AcDbBlockTableRecord
  2
DICHTUNG_SW
340
0
102
{BLKREFS
331
11D66
331
BC060000000000EB
331
BC0600000000011F
102
}
 70
     4
280
     1
281
     0
1001
ACAD
1000
DesignCenter Data
1002
{
1070
     1
1070
     4
1002
}
  0
BLOCK_RECORD
  5
11CD7
330
11EB5
100
AcDbSymbolTableRecord
100
AcDbBlockTableRecord
  2
PRJ_INSERT_17_38403816970
340
0
102
{BLKREFS
331
11E63
331
BC060000000000B0
331
0
102
}
 70
     0
280
     1
281
     0
  0
BLOCK_RECORD
  5
11CD8
330
11EB5
100
AcDbSymbolTableRecord
100
AcDbBlockTableRecord
  2
PRJ_INSERT_16_384038226484
340
0
102
{BLKREFS
331
11E64
331
BC060000000000B1
331
BC060000000000D6
102
}
 70
     0
280
     1
281
     0
  0
BLOCK_RECORD
  5
11CD9
330
11EB5
100
AcDbSymbolTableRecord
100
AcDbBlockTableRecord
  2
PRJ_INSERT_15_384038320614
340
0
102
{BLKREFS
331
11E65
331
BC060000000000B2
331
BC060000000000D7
102
}
 70
     0
280
     1
281
     0
  0
BLOCK_RECORD
  5
11CDA
330
11EB5
100
AcDbSymbolTableRecord
100
AcDbBlockTableRecord
  2
PRJ_INSERT_14_384038323431
340
0
102
{BLKREFS
331
11E66
331
BC060000000000B3
331
0
102
}
 70
     0
280
     1
281
     0
  0
BLOCK_RECORD
  5
11CDB
330
11EB5
100
AcDbSymbolTableRecord
100
AcDbBlockTableRecord
  2
GLAS
340
0
102
{BLKREFS
331
11E32
331
0
102
}
 70
     0
280
     1
281
     0
  0
BLOCK_RECORD
  5
11CDC
330
11EB5
100
AcDbSymbolTableRecord
100
AcDbBlockTableRecord
  2
DIM_GLASLEISTE_OBEN
340
0
102
{BLKREFS
331
11E3D
331
0
102
}
 70
     0
280
     1
281
     0
1001
ACDBDYNAMICBLOCKGUID
1000
{AC3665C1-2D35-4CA0-9D63-E1643C970CD8}
  0
BLOCK_RECORD
  5
11CDE
330
11EB5
100
AcDbSymbolTableRecord
100
AcDbBlockTableRecord
  2
DIM_GLASLEISTE_UNTEN
340
0
102
{BLKREFS
331
11E3F
331
0
102
}
 70
     4
280
     1
281
     0
1001
ACAD
1000
DesignCenter Data
1002
{
1070
     1
1070
     4
1002
}
  0
BLOCK_RECORD
  5
11CDF
330
11EB5
100
AcDbSymbolTableRecord
100
AcDbBlockTableRecord
  2
PRJ_INSERT_13_384038323999
340
0
102
{BLKREFS
331
11E40
331
0
102
}
 70
     0
280
     1
281
     0
  0
BLOCK_RECORD
  5
11CE0
330
11EB5
100
AcDbSymbolTableRecord
100
AcDbBlockTableRecord
  2
PRJ_INSERT_12_384038418086
340
0
102
{BLKREFS
331
11E67
331
BC060000000000B4
331
BC060000000000D9
102
}
 70
     0
280
     1
281
     0
  0
BLOCK_RECORD
  5
11CE1
330
11EB5
100
AcDbSymbolTableRecord
100
AcDbBlockTableRecord
  2
PRJ_INSERT_11_384038518730
340
0
102
{BLKREFS
331
11CEA
331
0
102
}
 70
     0
280
     1
281
     0
  0
BLOCK_RECORD
  5
11CE2
330
11EB5
100
AcDbSymbolTableRecord
100
AcDbBlockTableRecord
  2
SLASH_OPEN
340
0
102
{BLKREFS
331
11E76
331
11E77
331
11E81
331
11E82
331
11E8C
331
11E8D
331
11E97
331
11E98
331
11EA2
331
11EA3
331
11EAD
331
11EAE
102
}
 70
     0
280
     1
281
     0
  0
BLOCK_RECORD
  5
11CE3
330
11EB5
100
AcDbSymbolTableRecord
100
AcDbBlockTableRecord
  2
*D31
340
0
 70
     0
280
     1
281
     0
  0
BLOCK_RECORD
  5
11CE4
330
11EB5
100
AcDbSymbolTableRecord
100
AcDbBlockTableRecord
  2
*D32
340
0
 70
     0
280
     1
281
     0
  0
BLOCK_RECORD
  5
11CE5
330
11EB5
100
AcDbSymbolTableRecord
100
AcDbBlockTableRecord
  2
*D33
340
0
 70
     0
280
     1
281
     0
  0
BLOCK_RECORD
  5
11CE6
330
11EB5
100
AcDbSymbolTableRecord
100
AcDbBlockTableRecord
  2
*D34
340
0
 70
     0
280
     1
281
     0
  0
BLOCK_RECORD
  5
11CE7
330
11EB5
100
AcDbSymbolTableRecord
100
AcDbBlockTableRecord
  2
*D35
340
0
 70
     0
280
     1
281
     0
  0
BLOCK_RECORD
  5
11CE8
330
11EB5
100
AcDbSymbolTableRecord
100
AcDbBlockTableRecord
  2
*D36
340
0
 70
     0
280
     1
281
     0
  0
BLOCK_RECORD
  5
11EB0
330
11EB5
100
AcDbSymbolTableRecord
100
AcDbBlockTableRecord
  2
PRJ_INSERT_10_38408385504
340
0
102
{BLKREFS
331
0
102
}
 70
     0
280
     1
281
     0
  0
BLOCK_RECORD
  5
BC06000000000178
330
11EB5
100
AcDbSymbolTableRecord
100
AcDbBlockTableRecord
  2
_3692
340
0
102
{BLKREFS
331
BC06000000000177
331
0
331
BC060000000001CA
102
}
 70
     0
280
     1
281
     0
  0
BLOCK_RECORD
  5
BC060000000001B3
330
11EB5
100
AcDbSymbolTableRecord
100
AcDbBlockTableRecord
  2
_500B
340
0
102
{BLKREFS
331
BC060000000001B2
331
0
331
BC060000000001CB
102
}
 70
     0
280
     1
281
     0
  0
ENDTAB
  0
ENDSEC
  0
SECTION
  2
BLOCKS
  0
BLOCK
  5
11EC1
330
11EBF
100
AcDbEntity
  8
0
390
11ED1
100
AcDbBlockBegin
  2
*MODEL_SPACE
 70
     0
 10
0.0
 20
0.0
 30
0.0
  3
*MODEL_SPACE
  1
*MODEL_SPACE
  0
ENDBLK
  5
11EC2
330
11EBF
100
AcDbEntity
  8
0
390
11ED1
100
AcDbBlockEnd
  0
BLOCK
  5
11EC3
330
11EC0
100
AcDbEntity
 67
     1
  8
0
390
11ED1
100
AcDbBlockBegin
  2
*PAPER_SPACE
 70
     0
 10
0.0
 20
0.0
 30
0.0
  3
*PAPER_SPACE
  1
*PAPER_SPACE
  0
ENDBLK
  5
11EC4
330
11EC0
100
AcDbEntity
 67
     1
  8
0
390
11ED1
100
AcDbBlockEnd
  0
BLOCK
  5
11CB3
330
11CAF
100
AcDbEntity
  8
0
 62
     1
390
11ED1
100
AcDbBlockBegin
  2
BASIS
 70
     0
 10
0.0
 20
0.0
 30
0.0
  3
BASIS
  1
BASIS
  0
LINE
  5
11CB0
330
11CAF
100
AcDbEntity
  8
ASSEMBLY
 62
     1
390
11ED1
100
AcDbLine
 10
0.0
 20
0.0
 30
0.0
 11
3.0
 21
0.0
 31
0.0
  0
LINE
  5
11CB1
330
11CAF
100
AcDbEntity
  8
ASSEMBLY
 62
     3
390
11ED1
100
AcDbLine
 10
0.0
 20
0.0
 30
0.0
 11
0.0
 21
2.998156985077132
 31
0.0
  0
TEXT
  5
11CB2
330
11CAF
100
AcDbEntity
  8
ASSEMBLY
390
11ED1
100
AcDbText
 10
0.45
 20
1.17
 30
0.0
 40
0.6
  1
BASIS
100
AcDbText
  0
ENDBLK
  5
11CB4
330
11CAF
100
AcDbEntity
  8
0
 62
     1
390
11ED1
100
AcDbBlockEnd
  0
BLOCK
  5
11CC1
330
11CC0
100
AcDbEntity
  8
ASSEMBLY
  6
Continuous
 62
     7
390
11ED1
100
AcDbBlockBegin
  2
INSERT_MULTIPOS_0
 70
     0
 10
0.0
 20
0.0
 30
0.0
  3
INSERT_MULTIPOS_0
  1
INSERT_MULTIPOS_0
  0
ENDBLK
  5
11CC2
330
11CC0
100
AcDbEntity
  8
ASSEMBLY
  6
Continuous
 62
     7
390
11ED1
100
AcDbBlockEnd
  0
BLOCK
  5
11CF4
330
11CC5
100
AcDbEntity
  8
0
390
11ED1
100
AcDbBlockBegin
  2
GLASLEISTE
 70
     0
 10
0.0
 20
0.0
 30
0.0
  3
GLASLEISTE
  1
GLASLEISTE
  0
LINE
  5
11CF5
330
11CC5
100
AcDbEntity
  8
ASSEMBLY
 62
     1
390
11ED1
100
AcDbLine
 10
0.0
 20
0.0
 30
0.0
 11
3.0
 21
0.0
 31
0.0
  0
LINE
  5
11CF6
330
11CC5
100
AcDbEntity
  8
ASSEMBLY
 62
     3
390
11ED1
100
AcDbLine
 10
0.0
 20
0.0
 30
0.0
 11
0.0
 21
2.998156985077132
 31
0.0
  0
TEXT
  5
11CF7
330
11CC5
100
AcDbEntity
  8
ASSEMBLY
390
11ED1
100
AcDbText
 10
0.45
 20
1.17
 30
0.0
 40
0.6
  1
GLASLEISTE
100
AcDbText
  0
ENDBLK
  5
11CF8
330
11CC5
100
AcDbEntity
  8
0
390
11ED1
100
AcDbBlockEnd
  0
BLOCK
  5
11CF9
330
11CC6
100
AcDbEntity
  8
0
390
11ED1
100
AcDbBlockBegin
  2
VERKLOTZUNG
 70
     0
 10
0.0
 20
0.0
 30
0.0
  3
VERKLOTZUNG
  1
VERKLOTZUNG
  0
LINE
  5
11CFA
330
11CC6
100
AcDbEntity
  8
ASSEMBLY
 62
     1
390
11ED1
100
AcDbLine
 10
0.0
 20
0.0
 30
0.0
 11
3.0
 21
0.0
 31
0.0
  0
LINE
  5
11CFB
330
11CC6
100
AcDbEntity
  8
ASSEMBLY
 62
     3
390
11ED1
100
AcDbLine
 10
0.0
 20
0.0
 30
0.0
 11
0.0
 21
2.998156985077132
 31
0.0
  0
TEXT
  5
11CFC
330
11CC6
100
AcDbEntity
  8
ASSEMBLY
390
11ED1
100
AcDbText
 10
0.45
 20
1.17
 30
0.0
 40
0.6
  1
VERKLOTZUNG
100
AcDbText
  0
ENDBLK
  5
11CFD
330
11CC6
100
AcDbEntity
  8
0
390
11ED1
100
AcDbBlockEnd
  0
BLOCK
  5
11CFE
330
11CC7
100
AcDbEntity
  8
0
390
11ED1
100
AcDbBlockBegin
  2
STAHL1
 70
     0
 10
0.0
 20
0.0
 30
0.0
  3
STAHL1
  1
STAHL1
  0
LINE
  5
11CFF
330
11CC7
100
AcDbEntity
  8
ASSEMBLY
 62
     1
390
11ED1
100
AcDbLine
 10
0.0
 20
0.0
 30
0.0
 11
3.0
 21
0.0
 31
0.0
  0
LINE
  5
11D00
330
11CC7
100
AcDbEntity
  8
ASSEMBLY
 62
     3
390
11ED1
100
AcDbLine
 10
0.0
 20
0.0
 30
0.0
 11
0.0
 21
2.998156985077132
 31
0.0
  0
TEXT
  5
11D01
330
11CC7
100
AcDbEntity
  8
ASSEMBLY
390
11ED1
100
AcDbText
 10
0.45
 20
1.17
 30
0.0
 40
0.6
  1
STAHL 1
100
AcDbText
  0
ENDBLK
  5
11D02
330
11CC7
100
AcDbEntity
  8
0
390
11ED1
100
AcDbBlockEnd
  0
BLOCK
  5
11D03
330
11CC8
100
AcDbEntity
  8
0
390
11ED1
100
AcDbBlockBegin
  2
ALU-VSS
 70
     0
 10
0.0
 20
0.0
 30
0.0
  3
ALU-VSS
  1
ALU-VSS
  0
LINE
  5
11D04
330
11CC8
100
AcDbEntity
  8
ASSEMBLY
 62
     1
390
11ED1
100
AcDbLine
 10
0.0
 20
0.0
 30
0.0
 11
3.0
 21
0.0
 31
0.0
  0
LINE
  5
11D05
330
11CC8
100
AcDbEntity
  8
ASSEMBLY
 62
     3
390
11ED1
100
AcDbLine
 10
0.0
 20
0.0
 30
0.0
 11
0.0
 21
2.998156985077132
 31
0.0
  0
TEXT
  5
11D06
330
11CC8
100
AcDbEntity
  8
ASSEMBLY
390
11ED1
100
AcDbText
 10
0.45
 20
1.17
 30
0.0
 40
0.6
  1
ALU VSS
100
AcDbText
  0
ENDBLK
  5
11D07
330
11CC8
100
AcDbEntity
  8
0
390
11ED1
100
AcDbBlockEnd
  0
BLOCK
  5
11D08
330
11CC9
100
AcDbEntity
  8
0
390
11ED1
100
AcDbBlockBegin
  2
DICHTUNG_AD
 70
     0
 10
0.0
 20
0.0
 30
0.0
  3
DICHTUNG_AD
  1
DICHTUNG_AD
  0
LINE
  5
11D09
330
11CC9
100
AcDbEntity
  8
ASSEMBLY
 62
     1
390
11ED1
100
AcDbLine
 10
0.0
 20
0.0
 30
0.0
 11
3.0
 21
0.0
 31
0.0
  0
LINE
  5
11D0A
330
11CC9
100
AcDbEntity
  8
ASSEMBLY
 62
     3
390
11ED1
100
AcDbLine
 10
0.0
 20
0.0
 30
0.0
 11
0.0
 21
2.998156985077132
 31
0.0
  0
TEXT
  5
11D0B
330
11CC9
100
AcDbEntity
  8
ASSEMBLY
390
11ED1
100
AcDbText
 10
0.45
 20
1.17
 30
0.0
 40
0.6
  1
DICHTUNG_AD
100
AcDbText
  0
ENDBLK
  5
11D0C
330
11CC9
100
AcDbEntity
  8
0
390
11ED1
100
AcDbBlockEnd
  0
BLOCK
  5
11D0D
330
11CCA
100
AcDbEntity
  8
0
390
11ED1
100
AcDbBlockBegin
  2
DICHTUNG_GD
 70
     0
 10
0.0
 20
0.0
 30
0.0
  3
DICHTUNG_GD
  1
DICHTUNG_GD
  0
LINE
  5
11D0E
330
11CCA
100
AcDbEntity
  8
ASSEMBLY
 62
     1
390
11ED1
100
AcDbLine
 10
0.0
 20
0.0
 30
0.0
 11
3.0
 21
0.0
 31
0.0
  0
LINE
  5
11D0F
330
11CCA
100
AcDbEntity
  8
ASSEMBLY
 62
     3
390
11ED1
100
AcDbLine
 10
0.0
 20
0.0
 30
0.0
 11
0.0
 21
2.998156985077132
 31
0.0
  0
TEXT
  5
11D10
330
11CCA
100
AcDbEntity
  8
ASSEMBLY
390
11ED1
100
AcDbText
 10
0.45
 20
1.17
 30
0.0
 40
0.6
  1
DICHTUNG_GD
100
AcDbText
  0
ENDBLK
  5
11D11
330
11CCA
100
AcDbEntity
  8
0
390
11ED1
100
AcDbBlockEnd
  0
BLOCK
  5
11D12
330
11CCB
100
AcDbEntity
  8
0
390
11ED1
100
AcDbBlockBegin
  2
DIM_FLUEGEL_AUSSEN_OBEN
 70
     0
 10
0.0
 20
0.0
 30
0.0
  3
DIM_FLUEGEL_AUSSEN_OBEN
  1
DIM_FLUEGEL_AUSSEN_OBEN
  0
LINE
  5
11D13
330
11CCB
100
AcDbEntity
  8
ASSEMBLY
 62
     1
390
11ED1
100
AcDbLine
 10
0.0
 20
0.0
 30
0.0
 11
3.0
 21
0.0
 31
0.0
  0
LINE
  5
11D14
330
11CCB
100
AcDbEntity
  8
ASSEMBLY
 62
     3
390
11ED1
100
AcDbLine
 10
0.0
 20
0.0
 30
0.0
 11
0.0
 21
2.998156985077132
 31
0.0
  0
TEXT
  5
11D15
330
11CCB
100
AcDbEntity
  8
ASSEMBLY
390
11ED1
100
AcDbText
 10
0.45
 20
1.17
 30
0.0
 40
0.6
  1
DIM_FLUEGEL_AUSSEN_OBEN
100
AcDbText
  0
ENDBLK
  5
11D16
330
11CCB
100
AcDbEntity
  8
0
390
11ED1
100
AcDbBlockEnd
  0
BLOCK
  5
11D17
330
11CCC
100
AcDbEntity
  8
0
390
11ED1
100
AcDbBlockBegin
  2
DIM_FLUEGEL_INNEN_OBEN
 70
     0
 10
0.0
 20
0.0
 30
0.0
  3
DIM_FLUEGEL_INNEN_OBEN
  1
DIM_FLUEGEL_INNEN_OBEN
  0
LINE
  5
11D18
330
11CCC
100
AcDbEntity
  8
ASSEMBLY
 62
     1
390
11ED1
100
AcDbLine
 10
0.0
 20
0.0
 30
0.0
 11
3.0
 21
0.0
 31
0.0
  0
LINE
  5
11D19
330
11CCC
100
AcDbEntity
  8
ASSEMBLY
 62
     3
390
11ED1
100
AcDbLine
 10
0.0
 20
0.0
 30
0.0
 11
0.0
 21
2.998156985077132
 31
0.0
  0
TEXT
  5
11D1A
330
11CCC
100
AcDbEntity
  8
ASSEMBLY
390
11ED1
100
AcDbText
 10
0.45
 20
1.17
 30
0.0
 40
0.6
  1
DIM_FLUEGEL_INNEN_OBEN
100
AcDbText
  0
ENDBLK
  5
11D1B
330
11CCC
100
AcDbEntity
  8
0
390
11ED1
100
AcDbBlockEnd
  0
BLOCK
  5
11D1C
330
11CCD
100
AcDbEntity
  8
0
390
11ED1
100
AcDbBlockBegin
  2
DIM_FLUEGEL_INNEN_UNTEN
 70
     0
 10
0.0
 20
0.0
 30
0.0
  3
DIM_FLUEGEL_INNEN_UNTEN
  1
DIM_FLUEGEL_INNEN_UNTEN
  0
LINE
  5
11D1D
330
11CCD
100
AcDbEntity
  8
ASSEMBLY
 62
     1
390
11ED1
100
AcDbLine
 10
0.0
 20
0.0
 30
0.0
 11
3.0
 21
0.0
 31
0.0
  0
LINE
  5
11D1E
330
11CCD
100
AcDbEntity
  8
ASSEMBLY
 62
     3
390
11ED1
100
AcDbLine
 10
0.0
 20
0.0
 30
0.0
 11
0.0
 21
2.998156985077132
 31
0.0
  0
TEXT
  5
11D1F
330
11CCD
100
AcDbEntity
  8
ASSEMBLY
390
11ED1
100
AcDbText
 10
0.45
 20
1.17
 30
0.0
 40
0.6
  1
DIM_FLUEGEL_INNEN_UNTEN
100
AcDbText
  0
ENDBLK
  5
11D20
330
11CCD
100
AcDbEntity
  8
0
390
11ED1
100
AcDbBlockEnd
  0
BLOCK
  5
11D21
330
11CCE
100
AcDbEntity
  8
0
390
11ED1
100
AcDbBlockBegin
  2
DIM_FLUEGEL_AUSSEN_UNTEN
 70
     0
 10
0.0
 20
0.0
 30
0.0
  3
DIM_FLUEGEL_AUSSEN_UNTEN
  1
DIM_FLUEGEL_AUSSEN_UNTEN
  0
LINE
  5
11D22
330
11CCE
100
AcDbEntity
  8
ASSEMBLY
 62
     1
390
11ED1
100
AcDbLine
 10
0.0
 20
0.0
 30
0.0
 11
3.0
 21
0.0
 31
0.0
  0
LINE
  5
11D23
330
11CCE
100
AcDbEntity
  8
ASSEMBLY
 62
     3
390
11ED1
100
AcDbLine
 10
0.0
 20
0.0
 30
0.0
 11
0.0
 21
2.998156985077132
 31
0.0
  0
TEXT
  5
11D24
330
11CCE
100
AcDbEntity
  8
ASSEMBLY
390
11ED1
100
AcDbText
 10
0.45
 20
1.17
 30
0.0
 40
0.6
  1
DIM_FLUEGEL_AUSSEN_UNTEN
100
AcDbText
  0
ENDBLK
  5
11D25
330
11CCE
100
AcDbEntity
  8
0
390
11ED1
100
AcDbBlockEnd
  0
BLOCK
  5
11D26
330
11CCF
100
AcDbEntity
  8
PVC_INSIDE
 62
     0
390
11ED1
100
AcDbBlockBegin
  2
PRJ_INSERT_18_384038131086
 70
     0
 10
-7.315709309418153
 20
2.363975966902228
 30
0.0
  3
PRJ_INSERT_18_384038131086
  1
PRJ_INSERT_18_384038131086
  0
INSERT
  5
11D27
330
11CCF
100
AcDbEntity
  8
ASSEMBLY
390
11ED1
100
AcDbBlockReference
  2
BASIS
 10
-7.315709309418153
 20
2.363975966902228
 30
0.0
  0
LWPOLYLINE
  5
11D28
330
11CCF
100
AcDbEntity
  8
GASKET_INSIDE
390
11ED1
100
AcDbPolyline
 90
       63
 70
     1
 43
0.0
 10
-6.365370487903146
 20
5.028336069564057
 10
-6.195278168032147
 20
6.762992186356699
 42
-0.9865459521008063
 10
-5.147893790719351
 20
6.932169461718797
 42
0.5771159790964033
 10
-5.130586418684274
 20
6.93274660597191
 10
-4.675447448030699
 20
7.784780383028595
 42
-0.909752854282539
 10
-4.55242027838899
 20
7.65377739071803
 10
-5.107618993559601
 20
6.893492783474072
 10
-5.106665361808677
 20
5.757290478693589
 42
-0.6567335324827468
 10
-5.387677431985351
 20
5.660853181584921
 42
0.470851549885956
 10
-5.403075553776485
 20
5.660105591648364
 42
-0.0422914338552985
 10
-5.571832521614914
 20
5.470276016616543
 42
0.5106885025564458
 10
-5.5696825370199
 20
5.454217289080219
 42
-1.061147915796915
 10
-5.779307385829823
 20
5.11437154151422
 42
0.4304887401521438
 10
-5.793542229918016
 20
5.111471076728174
 42
0.0218393286077842
 10
-6.030321112993869
 20
4.691227172388232
 42
0.4183642972759857
 10
-6.025799921236741
 20
4.677722030231975
 42
-0.9763513987691673
 10
-6.192989007653435
 20
4.31446426999791
 42
0.4183642972759242
 10
-6.206188005190715
 20
4.309114830440696
 42
0.0194631951657079
 10
-6.355358433348721
 20
3.905904289179538
 42
0.4336175570319904
 10
-6.348322210395058
 20
3.893112085073645
 42
-1.045356671924692
 10
-6.464110671085241
 20
3.510648202137626
 42
0.4454881908012903
 10
-6.477160061389986
 20
3.503521394216949
 42
0.0213464123775043
 10
-6.567647452616992
 20
3.033126162900226
 42
0.4344822253614624
 10
-6.558541559838816
 20
3.021688838352869
 42
-1.031727494284848
 10
-6.602385335818924
 20
2.624295168328336
 42
0.4344822253257106
 10
-6.613765585941963
 20
2.615118045511127
 42
0.020780483342867
 10
-6.62451142787024
 20
2.136789327054116
 42
0.4067092199190328
 10
-6.614514442140657
 20
2.127730704099624
 42
-1.034562848469605
 10
-6.597069661445921
 20
1.728608207156412
 42
0.4370253081953943
 10
-6.606927276330933
 20
1.71773335752434
 42
0.0215103306352273
 10
-6.54403520305733
 20
1.239153677511989
 42
0.4398582010873574
 10
-6.531610635433769
 20
1.231218972002841
 42
-1.050567329781343
 10
-6.447888542642765
 20
0.8405760597403154
 42
0.4398582010872837
 10
-6.455970100285611
 20
0.828246507509399
 42
0.021449212507887
 10
-6.317660041967601
 20
0.3672223013772227
 42
0.4047041953598753
 10
-6.305241630649228
 20
0.3609557991847021
 42
-0.9323636101728742
 10
-6.160297289929106
 20
-0.0108088721440645
 42
0.4047041953598466
 10
-6.165196840963274
 20
-0.0238273355351346
 42
0.0210455547518835
 10
-5.959247583053407
 20
-0.4488306012320038
 42
0.4257308848803494
 10
-5.94536318527603
 20
-0.4527105331396983
 42
-1.00298835838405
 10
-5.742869277275622
 20
-0.797668169107105
 42
0.4257308849249914
 10
-5.746249481547445
 20
-0.8116826113849704
 42
0.0214425351443382
 10
-5.470133645225201
 20
-1.205749796494731
 42
0.4099151361061161
 10
-5.456230603528907
 20
-1.207690398001134
 42
-0.9491751939750501
 10
-5.201499165831459
 20
-1.515387237569409
 42
0.4099151361060285
 10
-5.202188238079028
 20
-1.529408139182826
 42
0.0141923941930107
 10
-4.983342220270275
 20
-1.760899663871742
 42
-0.9543105952124779
 10
-4.851434893788566
 20
-2.138061480696194
 42
0.306491162412613
 10
-4.857237550700415
 20
-2.147184492997877
 42
-0.087136030030011
 10
-4.894391072965067
 20
-2.457312446649425
 42
0.3388451011786837
 10
-4.890104289858009
 20
-2.468689513178725
 42
-0.9684982024869077
 10
-5.090503037315582
 20
-2.814632464128726
 42
0.3388451011787018
 10
-5.10250493015733
 20
-2.816573783379694
 42
-0.0722547054174182
 10
-5.306074681738778
 20
-2.977690239729077
 42
0.3335607705923606
 10
-5.310768329944569
 20
-2.988741342804191
 42
-0.9491892514297389
 10
-5.69303917651451
 20
-3.10464948130916
 42
0.3461439225338313
 10
-5.703529310390351
 20
-3.098104753455234
 42
-0.0873843952030302
 10
-5.943360189794956
 20
-3.082335166809839
 42
0.3573521323350826
 10
-5.954793325257098
 20
-3.087807812264074
 42
-1.067553971162518
 10
-6.304450782059878
 20
-2.895303558805377
 42
0.1678745059126034
 10
-6.302924116967288
 20
-2.88895357482791
 42
-0.1353483455516476
 10
-6.301982394540528
 20
-1.651664683909727
 10
-6.348585087983065
 20
-0.3017777242625659
 42
-0.1564923140911832
  0
LWPOLYLINE
  5
11D2A
330
11CCF
100
AcDbEntity
  8
GASKET_OUTSIDE
390
11ED1
100
AcDbPolyline
 90
       23
 70
     1
 43
0.0
 10
-9.305602603678862
 20
0.2478084489034504
 42
0.6178194826701799
 10
-8.901194239009161
 20
0.4385747115174565
 42
-0.4074370239833905
 10
-8.701248022810578
 20
0.6339367563779472
 10
-8.154233577969517
 20
0.6339367563779472
 42
-0.2225951552981526
 10
-7.31571213163051
 20
-0.3865174054060025
 10
-7.315708706754049
 20
-2.188219673523664
 42
1.584867640849508
 10
-4.721411091371809
 20
-1.076005522949315
 42
-0.3064181042036634
 10
-5.124559335616198
 20
4.715137971155809
 42
-0.7761451262526933
 10
-5.10578664581767
 20
4.710346379730995
 10
-5.103854391759296
 20
2.408166830412509
 10
-4.149867338221225
 20
1.362175976455722
 42
0.6536068002047172
 10
-3.814365350731381
 20
1.509370279033141
 10
-3.817412177670416
 20
8.161977341787923
 42
0.2593782961742391
 10
-3.822141079561771
 20
8.170470734340645
 42
0.0880445977077079
 10
-5.437684648936368
 20
8.435987994195582
 42
0.0743102061400803
 10
-7.31571160720245
 20
8.149978108470226
 10
-7.315709309418153
 20
5.113466826673655
 42
-0.2212005377944744
 10
-8.154233577969277
 20
4.093001583326467
 10
-8.701248022810613
 20
4.093001583326467
 42
-0.4074370238977281
 10
-8.901194239007832
 20
4.2883636281282
 42
0.6178202108616152
 10
-9.305603018008474
 20
4.479129565186664
 10
-10.89173957124053
 20
3.069355825705229
 42
0.4132146787468345
 10
-10.89171383486627
 20
1.657556689672463
  0
ENDBLK
  5
11D2C
330
11CCF
100
AcDbEntity
  8
PVC_INSIDE
 62
     0
390
11ED1
100
AcDbBlockEnd
  0
BLOCK
  5
11D2D
330
11CD0
100
AcDbEntity
  8
0
390
11ED1
100
AcDbBlockBegin
  2
FLUEGEL
 70
     0
 10
0.0
 20
0.0
 30
0.0
  3
FLUEGEL
  1
FLUEGEL
  0
LINE
  5
11D2E
330
11CD0
100
AcDbEntity
  8
ASSEMBLY
 62
     3
390
11ED1
100
AcDbLine
 10
0.0
 20
0.0
 30
0.0
 11
0.0
 21
2.998156985077131
 31
0.0
  0
TEXT
  5
11D2F
330
11CD0
100
AcDbEntity
  8
ASSEMBLY
390
11ED1
100
AcDbText
 10
0.45
 20
1.169999999999999
 30
0.0
 40
0.6
  1
FLUEGEL
100
AcDbText
  0
LINE
  5
11D30
330
11CD0
100
AcDbEntity
  8
ASSEMBLY
 62
     1
390
11ED1
100
AcDbLine
 10
0.0
 20
0.0
 30
0.0
 11
3.000142492831654
 21
0.0
 31
0.0
  0
ENDBLK
  5
11D31
330
11CD0
100
AcDbEntity
  8
0
390
11ED1
100
AcDbBlockEnd
  0
BLOCK
  5
11D32
330
11CD1
100
AcDbEntity
  8
0
390
11ED1
100
AcDbBlockBegin
  2
VERBREITERUNG
 70
     0
 10
0.0
 20
0.0
 30
0.0
  3
VERBREITERUNG
  1
VERBREITERUNG
  0
LINE
  5
11D33
330
11CD1
100
AcDbEntity
  8
ASSEMBLY
 62
     1
390
11ED1
100
AcDbLine
 10
0.0
 20
0.0
 30
0.0
 11
3.0
 21
0.0
 31
0.0
  0
LINE
  5
11D34
330
11CD1
100
AcDbEntity
  8
ASSEMBLY
 62
     3
390
11ED1
100
AcDbLine
 10
0.0
 20
0.0
 30
0.0
 11
0.0
 21
2.998156985077131
 31
0.0
  0
TEXT
  5
11D35
330
11CD1
100
AcDbEntity
  8
ASSEMBLY
390
11ED1
100
AcDbText
 10
0.45
 20
1.169999999999999
 30
0.0
 40
0.6
  1
VERBREITERUNG
100
AcDbText
  0
ENDBLK
  5
11D36
330
11CD1
100
AcDbEntity
  8
0
390
11ED1
100
AcDbBlockEnd
  0
BLOCK
  5
11D37
330
11CD2
100
AcDbEntity
  8
0
390
11ED1
100
AcDbBlockBegin
  2
DIM_RAHMEN_AUSSEN_UNTEN
 70
     0
 10
0.0
 20
0.0
 30
0.0
  3
DIM_RAHMEN_AUSSEN_UNTEN
  1
DIM_RAHMEN_AUSSEN_UNTEN
  0
LINE
  5
11D38
330
11CD2
100
AcDbEntity
  8
ASSEMBLY
 62
     1
390
11ED1
100
AcDbLine
 10
0.0
 20
0.0
 30
0.0
 11
3.0
 21
0.0
 31
0.0
  0
LINE
  5
11D39
330
11CD2
100
AcDbEntity
  8
ASSEMBLY
 62
     3
390
11ED1
100
AcDbLine
 10
0.0
 20
0.0
 30
0.0
 11
0.0
 21
2.998156985077131
 31
0.0
  0
TEXT
  5
11D3A
330
11CD2
100
AcDbEntity
  8
ASSEMBLY
390
11ED1
100
AcDbText
 10
0.45
 20
1.169999999999999
 30
0.0
 40
0.6
  1
DIM_RAHMEN_AUSSEN_UNTEN
100
AcDbText
  0
ENDBLK
  5
11D3B
330
11CD2
100
AcDbEntity
  8
0
390
11ED1
100
AcDbBlockEnd
  0
BLOCK
  5
11D3C
330
11CD3
100
AcDbEntity
  8
0
390
11ED1
100
AcDbBlockBegin
  2
DIM_RAHMEN_INNEN_OBEN
 70
     0
 10
0.0
 20
0.0
 30
0.0
  3
DIM_RAHMEN_INNEN_OBEN
  1
DIM_RAHMEN_INNEN_OBEN
  0
LINE
  5
11D3D
330
11CD3
100
AcDbEntity
  8
ASSEMBLY
 62
     1
390
11ED1
100
AcDbLine
 10
0.0
 20
0.0
 30
0.0
 11
3.0
 21
0.0
 31
0.0
  0
LINE
  5
11D3E
330
11CD3
100
AcDbEntity
  8
ASSEMBLY
 62
     3
390
11ED1
100
AcDbLine
 10
0.0
 20
0.0
 30
0.0
 11
0.0
 21
2.998156985077131
 31
0.0
  0
TEXT
  5
11D3F
330
11CD3
100
AcDbEntity
  8
ASSEMBLY
390
11ED1
100
AcDbText
 10
0.45
 20
1.169999999999999
 30
0.0
 40
0.6
  1
DIM_RAHMEN_INNEN_OBEN
100
AcDbText
  0
ENDBLK
  5
11D40
330
11CD3
100
AcDbEntity
  8
0
390
11ED1
100
AcDbBlockEnd
  0
BLOCK
  5
11D41
330
11CD4
100
AcDbEntity
  8
0
390
11ED1
100
AcDbBlockBegin
  2
DIM_RAHMEN_INNEN_UNTEN
 70
     0
 10
0.0
 20
0.0
 30
0.0
  3
DIM_RAHMEN_INNEN_UNTEN
  1
DIM_RAHMEN_INNEN_UNTEN
  0
LINE
  5
11D42
330
11CD4
100
AcDbEntity
  8
ASSEMBLY
 62
     1
390
11ED1
100
AcDbLine
 10
0.0
 20
0.0
 30
0.0
 11
3.0
 21
0.0
 31
0.0
  0
LINE
  5
11D43
330
11CD4
100
AcDbEntity
  8
ASSEMBLY
 62
     3
390
11ED1
100
AcDbLine
 10
0.0
 20
0.0
 30
0.0
 11
0.0
 21
2.998156985077131
 31
0.0
  0
TEXT
  5
11D44
330
11CD4
100
AcDbEntity
  8
ASSEMBLY
390
11ED1
100
AcDbText
 10
0.45
 20
1.169999999999999
 30
0.0
 40
0.6
  1
DIM_RAHMEN_INNEN_UNTEN
100
AcDbText
  0
ENDBLK
  5
11D45
330
11CD4
100
AcDbEntity
  8
0
390
11ED1
100
AcDbBlockEnd
  0
BLOCK
  5
11D46
330
11CD5
100
AcDbEntity
  8
0
390
11ED1
100
AcDbBlockBegin
  2
DIM_RAHMEN_AUSSEN_OBEN
 70
     0
 10
0.0
 20
0.0
 30
0.0
  3
DIM_RAHMEN_AUSSEN_OBEN
  1
DIM_RAHMEN_AUSSEN_OBEN
  0
LINE
  5
11D47
330
11CD5
100
AcDbEntity
  8
ASSEMBLY
 62
     1
390
11ED1
100
AcDbLine
 10
0.0
 20
0.0
 30
0.0
 11
3.0
 21
0.0
 31
0.0
  0
LINE
  5
11D48
330
11CD5
100
AcDbEntity
  8
ASSEMBLY
 62
     3
390
11ED1
100
AcDbLine
 10
0.0
 20
0.0
 30
0.0
 11
0.0
 21
2.998156985077131
 31
0.0
  0
TEXT
  5
11D49
330
11CD5
100
AcDbEntity
  8
ASSEMBLY
390
11ED1
100
AcDbText
 10
0.45
 20
1.169999999999999
 30
0.0
 40
0.6
  1
DIM_RAHMEN_AUSSEN_OBEN
100
AcDbText
  0
ENDBLK
  5
11D4A
330
11CD5
100
AcDbEntity
  8
0
390
11ED1
100
AcDbBlockEnd
  0
BLOCK
  5
11D4B
330
11CD6
100
AcDbEntity
  8
0
 62
     3
390
11ED1
100
AcDbBlockBegin
  2
DICHTUNG_SW
 70
     0
 10
0.0
 20
0.0
 30
0.0
  3
DICHTUNG_SW
  1
DICHTUNG_SW
  0
LINE
  5
11D4C
330
11CD6
100
AcDbEntity
  8
ASSEMBLY
 62
     1
390
11ED1
100
AcDbLine
 10
0.0
 20
0.0
 30
0.0
 11
3.0
 21
0.0
 31
0.0
  0
LINE
  5
11D4D
330
11CD6
100
AcDbEntity
  8
ASSEMBLY
 62
     3
390
11ED1
100
AcDbLine
 10
0.0
 20
0.0
 30
0.0
 11
0.0
 21
2.998156985077131
 31
0.0
  0
TEXT
  5
11D4E
330
11CD6
100
AcDbEntity
  8
ASSEMBLY
390
11ED1
100
AcDbText
 10
0.4500000000000028
 20
1.170000000000002
 30
0.0
 40
0.6
  1
DICHTUNG_SW
100
AcDbText
  0
ENDBLK
  5
11D4F
330
11CD6
100
AcDbEntity
  8
0
 62
     3
390
11ED1
100
AcDbBlockEnd
  0
BLOCK
  5
11D50
330
11CD7
100
AcDbEntity
  8
PVC_INSIDE
 62
     0
390
11ED1
100
AcDbBlockBegin
  2
PRJ_INSERT_17_38403816970
 70
     0
 10
2.999680522000268
 20
94.10632470657634
 30
0.0
  3
PRJ_INSERT_17_38403816970
  1
PRJ_INSERT_17_38403816970
  0
INSERT
  5
11D51
330
11CD7
100
AcDbEntity
  8
ASSEMBLY
390
11ED1
100
AcDbBlockReference
  2
BASIS
 10
2.999680522000268
 20
94.10632470657634
 30
0.0
  0
INSERT
  5
11D52
330
11CD7
100
AcDbEntity
  8
ASSEMBLY
390
11ED1
100
AcDbBlockReference
  2
FLUEGEL
 10
2.999680522000268
 20
94.10632470657634
 30
0.0
  0
INSERT
  5
11D53
330
11CD7
100
AcDbEntity
  8
ASSEMBLY
390
11ED1
100
AcDbBlockReference
  2
DIM_RAHMEN_INNEN_OBEN
 10
2.999680522000247
 20
96.10632470657646
 30
0.0
  0
INSERT
  5
11D54
330
11CD7
100
AcDbEntity
  8
ASSEMBLY
390
11ED1
100
AcDbBlockReference
  2
DIM_RAHMEN_INNEN_UNTEN
 10
2.999680522000403
 20
76.10632470657634
 30
0.0
  0
INSERT
  5
11D55
330
11CD7
100
AcDbEntity
  8
ASSEMBLY
390
11ED1
100
AcDbBlockReference
  2
VERBREITERUNG
 10
-79.50031874987366
 20
76.10386887944988
 30
0.0
  0
INSERT
  5
11D56
330
11CD7
100
AcDbEntity
  8
ASSEMBLY
390
11ED1
100
AcDbBlockReference
  2
DIM_RAHMEN_AUSSEN_OBEN
 10
-79.50031874987366
 20
96.1038688794499
 30
0.0
  0
INSERT
  5
11D57
330
11CD7
100
AcDbEntity
  8
ASSEMBLY
390
11ED1
100
AcDbBlockReference
  2
DIM_RAHMEN_AUSSEN_UNTEN
 10
-79.50031947799958
 20
76.10632467124829
 30
0.0
  0
HATCH
  5
11D58
330
11CD7
100
AcDbEntity
  8
HATCH_ALU
 62
   253
390
11ED1
100
AcDbHatch
 10
0.0
 20
0.0
 30
0.0
210
0.0
220
0.0
230
1.0
  2
ANSI37
 70
     0
 71
     0
 91
        1
 92
        7
 72
     1
 73
     1
 93
      177
 10
-61.76098933100323
 20
87.7800254181145
 42
-0.5040181606716768
 10
-61.20764432212093
 20
87.19696490173635
 42
0.0
 10
-63.10031947799956
 20
76.45839713558279
 42
0.4662850057637568
 10
-62.8048732756917
 20
76.10632467124826
 42
0.0
 10
-59.55078279371216
 20
76.10632467124823
 42
0.2679491924311237
 10
-59.29097517257682
 20
76.25632467124822
 42
0.0
 10
-58.84040841004982
 20
77.03672919614682
 42
0.1316163882721632
 10
-58.80021603420877
 20
77.18668660300672
 42
0.0
 10
-58.79982991181879
 20
79.90629627582148
 42
0.4142551471243174
 10
-58.99982990980305
 20
80.10632467124823
 42
0.3438279763225491
 10
-59.2392184570536
 20
80.04975002777694
 42
0.0
 10
-60.46044136255249
 20
78.86289931471956
 42
-0.1952056129037478
 10
-60.59982990980304
 20
78.80632467124825
 42
0.0
 10
-60.92504404474761
 20
78.80632467124828
 42
-0.466285005763736
 10
-61.12200817961948
 20
79.04103964747127
 42
0.0
 10
-59.66200503438711
 20
87.32473411304215
 42
-0.3297711771690491
 10
-58.79905370343273
 20
88.14370538356845
 42
0.0
 10
-53.05184877950946
 20
88.84937341657131
 42
-0.5040181606716784
 10
-52.49850377062714
 20
88.26631290019311
 42
0.0
 10
-54.60033605441009
 20
76.34103964747126
 42
0.4662850057637638
 10
-54.4033719195382
 20
76.10632467124826
 42
0.0
 10
-50.91571736138575
 20
76.10632467124823
 42
0.363991306013685
 10
-50.6202711590779
 20
76.35425220691371
 42
0.0
 10
-50.0003360544101
 20
79.87160969502524
 42
0.4662850057637894
 10
-50.197300189282
 20
80.10632467124823
 42
0.3438279763225471
 10
-50.43668873653255
 20
80.04975002777694
 42
0.0
 10
-51.65791164203138
 20
78.86289931471961
 42
-0.1952056129037103
 10
-51.79730018928191
 20
78.8063246712483
 42
0.0
 10
-52.40437633560511
 20
78.80632467124828
 42
-0.4662850057637815
 10
-52.60134047047703
 20
79.0410396474713
 42
0.0
 10
-50.95286448289332
 20
88.39408211149893
 42
-0.3297711771690399
 10
-50.08991315193895
 20
89.21305338202522
 42
0.0
 10
-41.02218882140471
 20
90.32642993233851
 42
-0.4504671536907995
 10
-39.90031947799955
 20
89.33388378069719
 42
0.0
 10
-39.90031947799955
 20
78.10632467124829
 42
-0.4142135623730951
 10
-40.20031947799956
 20
77.80632467124828
 42
0.0
 10
-42.70033605441009
 20
77.80632467124828
 42
0.4142135623730913
 10
-43.00033605441007
 20
77.50632467124831
 42
0.0
 10
-43.0003360544101
 20
76.10632467124829
 42
0.0
 10
-38.20031947799956
 20
76.10632467124829
 42
0.0
 10
-38.20031947799956
 20
80.90624532656607
 42
-0.4142135623730949
 10
-37.90031947799957
 20
81.20624532656605
 42
0.0
 10
-35.30031947799964
 20
81.20624532656605
 42
-0.4142135623730951
 10
-35.00031947799965
 20
80.90624532656607
 42
0.0
 10
-35.00031947799965
 20
76.10632467124829
 42
0.0
 10
-29.50031947799957
 20
76.10632467124826
 42
0.0
 10
-29.50031947799956
 20
77.60632467124826
 42
0.0
 10
-29.20031947799956
 20
77.60632467124826
 42
0.0
 10
-29.20031947799956
 20
81.10632467124825
 42
0.414213562373094
 10
-29.50031947799958
 20
81.40632467124827
 42
0.0
 10
-29.85061364654966
 20
81.40632467124827
 42
0.2134217652833905
 10
-30.22329164279962
 20
81.2396580045816
 42
0.0
 10
-30.84939067649955
 20
80.5396580045816
 42
0.6482315195104016
 10
-30.70031947799956
 20
80.20632467124828
 42
0.0
 10
-30.88888128631597
 20
79.67299133791497
 42
0.2889381676179884
 10
-30.84175841691952
 20
79.46492089987991
 42
0.0
 10
-30.56872350666473
 20
79.56429748012822
 42
-0.8025848516715808
 10
-30.35889812176227
 20
79.23493759973371
 42
0.0
 10
-30.87844930231555
 20
78.71538641918043
 42
0.2818168777198407
 10
-30.70031947799956
 20
78.60632467124829
 42
0.0
 10
-30.70031947799956
 20
77.9063246712483
 42
-0.4142135623730957
 10
-31.00031947799959
 20
77.60632467124826
 42
0.0
 10
-33.00031947799955
 20
77.60632467124826
 42
-0.414213562373095
 10
-33.30031947799955
 20
77.90632467124826
 42
0.0
 10
-33.30031947799955
 20
82.8999580830295
 42
0.2679491924311225
 10
-33.80031947799955
 20
83.76598348681394
 42
0.0
 10
-34.67990033766841
 20
84.2738097329178
 42
0.3394542588633895
 10
-35.04203237202438
 20
84.22613414613842
 42
0.463293548161627
 10
-35.16769656255822
 20
83.78601350802799
 42
0.0
 10
-34.65953620521674
 20
82.90585395072014
 42
0.0
 10
-34.65953620521674
 20
82.60585395072015
 42
0.0
 10
-37.19957046018303
 20
82.60585395072015
 42
0.0
 10
-37.19957046018303
 20
82.90585395072016
 42
0.0
 10
-36.7432145166567
 20
83.6962856312438
 42
0.339454258863375
 10
-36.79089010343607
 20
84.05841766559979
 42
0.0
 10
-37.04728090485213
 20
84.31480846701585
 42
0.3394542588633721
 10
-37.40941293920811
 20
84.36248405379521
 42
0.0
 10
-38.20031947799956
 20
83.90585395072016
 42
0.0
 10
-38.20031947799956
 20
83.90616584183799
 42
0.0
 10
-38.40031947799955
 20
83.90616584183799
 42
0.0
 10
-38.40031947799955
 20
86.30632467124828
 42
0.0
 10
-38.20031947799956
 20
86.30632467124828
 42
0.0
 10
-37.40971136406488
 20
85.8498668638446
 42
0.3394542588633685
 10
-37.04757932970888
 20
85.89754245062397
 42
0.0
 10
-36.79142928026435
 20
86.1536925000685
 42
0.3394542588633658
 10
-36.74375369348498
 20
86.51582453442447
 42
0.0
 10
-37.20014916027461
 20
87.30632467124828
 42
0.0
 10
-37.20014916027461
 20
87.60632467124829
 42
0.0
 10
-34.65895750512504
 20
87.60632467124829
 42
0.0
 10
-34.65895750512504
 20
87.30632467124828
 42
0.0
 10
-35.1671573857299
 20
86.42609665764022
 42
0.3394542588633538
 10
-35.11948179895055
 20
86.06396462328426
 42
0.4628280041288045
 10
-34.67960191281165
 20
85.93854118472196
 42
0.0
 10
-34.00031947799958
 20
86.33072508131649
 42
0.2679491924311243
 10
-33.50031947799957
 20
87.19675048510092
 42
0.0
 10
-33.50031947799957
 20
88.1402992674638
 42
0.267949192431126
 10
-34.00031947799957
 20
89.00632467124824
 42
0.0
 10
-34.0003194779996
 20
94.10632467124826
 42
0.4142135623730933
 10
-34.30031947799958
 20
94.40632467124824
 42
0.0
 10
-35.03463405305031
 20
94.40632467124824
 42
0.3178372451957764
 10
-35.50603857384134
 20
94.07299133791491
 42
0.0
 10
-35.78888128631598
 20
93.27299133791493
 42
0.5176380902050397
 10
-35.60031947799956
 20
93.00632467124824
 42
0.0
 10
-35.78888128631601
 20
92.47299133791492
 42
0.5176380902050802
 10
-35.60031947799959
 20
92.20632467124825
 42
0.0
 10
-35.78888128631598
 20
91.67299133791491
 42
0.5176380902050414
 10
-35.60031947799956
 20
91.40632467124824
 42
0.0
 10
-35.78888128631598
 20
90.87299133791493
 42
0.282439189542908
 10
-35.74511577138774
 20
90.6683607867674
 42
0.0
 10
-35.48153196974471
 20
90.76429744480019
 42
-0.8025848516715706
 10
-35.27170658484225
 20
90.43493756440569
 42
0.0
 10
-35.78260704355283
 20
89.92403710569509
 42
0.2948130110806821
 10
-35.60031947799956
 20
89.80632467124825
 42
0.0
 10
-35.60031947799953
 20
89.30632467124828
 42
-0.4142135623731159
 10
-35.90031947799956
 20
89.00632467124824
 42
0.0
 10
-37.90031947799955
 20
89.00632467124827
 42
-0.4142135623730909
 10
-38.20031947799956
 20
89.30632467124828
 42
0.0
 10
-38.20031947799956
 20
95.80632467124828
 42
0.4142135623730953
 10
-38.50031947799957
 20
96.10632467124829
 42
0.0
 10
-41.08952748701059
 20
96.10632467124829
 42
1.0
 10
-41.08952748701059
 20
94.85632467124826
 42
0.0
 10
-39.90031947799957
 20
94.85632467124826
 42
0.0
 10
-39.90031947799957
 20
92.176944870339
 42
0.0
 10
-74.23153553843046
 20
87.96160158109622
 42
0.3788661086953087
 10
-79.50031947799954
 20
82.00632467124844
 42
0.0
 10
-79.50031947799957
 20
80.40632467124827
 42
0.0
 10
-79.30031947799955
 20
80.20632467124828
 42
0.0
 10
-79.50031947799957
 20
80.00632467124827
 42
0.0
 10
-79.50031947799957
 20
76.60632467124826
 42
0.4142135623730951
 10
-79.00031947799957
 20
76.10632467124826
 42
0.0
 10
-76.55087482794607
 20
76.10632467124826
 42
0.2679491924311248
 10
-76.29106720681074
 20
76.25632467124827
 42
0.0
 10
-75.84051185686423
 20
77.03670942897762
 42
0.1316524975873952
 10
-75.80031947799955
 20
77.18670942897762
 42
0.0
 10
-75.80031947799955
 20
79.90632467124826
 42
0.4142135623731158
 10
-76.00031947799957
 20
80.10632467124826
 42
0.3438279763225576
 10
-76.23970802525011
 20
80.04975002777697
 42
0.0
 10
-77.46093093074902
 20
78.86289931471957
 42
-0.6630296383009107
 10
-77.80031947799955
 20
79.00632467124825
 42
0.0
 10
-77.80031947799955
 20
82.00632467124828
 42
-0.3492015436175727
 10
-74.46781947799956
 20
86.19606735427787
 42
-0.4823582210241648
 10
-74.10031947799956
 20
85.90375972522929
 42
0.0
 10
-74.10031947799956
 20
85.11242398928118
 42
0.1895800480667885
 10
-74.01994340267491
 20
84.90805830793965
 42
0.0
 10
-73.01493650155108
 20
83.82801610857592
 42
0.4142135623730893
 10
-72.59094689553419
 20
83.81275786524216
 42
0.0
 10
-72.29811499596707
 20
84.08524544036422
 42
0.4142135623730975
 10
-72.28285675263331
 20
84.50923504638114
 42
0.0
 10
-73.01994340267488
 20
85.30135367337002
 42
-0.1895800480667873
 10
-73.10031947799956
 20
85.50571935471162
 42
0.0
 10
-73.10031947799956
 20
86.12231316571571
 42
-0.3788661086953126
 10
-72.83688028102111
 20
86.42007701120811
 42
0.0
 10
-70.44900501412452
 20
86.71327122734492
 42
-0.5040181606716854
 10
-69.89566000524218
 20
86.13021071096671
 42
0.0
 10
-71.60031947799956
 20
76.45839713558279
 42
0.4662850057637702
 10
-71.3048732756917
 20
76.10632467124826
 42
0.0
 10
-68.05087482794603
 20
76.10632467124829
 42
0.2679491924311325
 10
-67.79106720681068
 20
76.25632467124831
 42
0.0
 10
-67.34051185686421
 20
77.03670942897766
 42
0.1316524975873849
 10
-67.30031947799955
 20
77.18670942897764
 42
0.0
 10
-67.30031947799955
 20
79.90632467124827
 42
0.4142135623730951
 10
-67.50031947799954
 20
80.10632467124826
 42
0.3438279763225892
 10
-67.73970802525008
 20
80.04975002777697
 42
0.0
 10
-68.960930930749
 20
78.86289931471958
 42
-0.195205612903717
 10
-69.10031947799955
 20
78.80632467124828
 42
0.0
 10
-69.42504404474752
 20
78.80632467124828
 42
-0.4662850057637638
 10
-69.62200817961943
 20
79.0410396474713
 42
0.0
 10
-68.35002071750836
 20
86.25797992227255
 42
-0.3297711771690311
 10
-67.48706938655404
 20
87.07695119279883
 42
0.0
 10
-67.22469334668061
 20
87.10916691964614
 42
-0.4504671536908374
 10
-67.00031947799954
 20
86.91065768931783
 42
0.0
 10
-67.00031947799957
 20
86.60632467124832
 42
0.4142135623731139
 10
-66.80031947799957
 20
86.4063246712483
 42
0.0
 10
-65.70031947799957
 20
86.40632467124827
 42
0.4142135623731028
 10
-65.50031947799957
 20
86.60632467124827
 42
0.0
 10
-65.50031947799957
 20
87.1439483550334
 42
-0.3788661086953148
 10
-65.3246933466806
 20
87.34245758536166
 42
0.0
 97
        0
 75
     1
 76
     1
 52
180.0
 41
15.0
 77
     0
 78
     2
 53
225.0
 43
-79.50031947799957
 44
76.10632467124829
 45
1.325825214724776
 46
-1.325825214724777
 79
     0
 53
315.0
 43
-79.50031947799957
 44
76.10632467124829
 45
1.325825214724777
 46
1.325825214724776
 79
     0
 47
0.070656019843468
 98
        1
 10
-63.02136676040257
 20
88.12039647937634
  0
LWPOLYLINE
  5
11D5C
330
11CD7
100
AcDbEntity
  8
PVC_OUTSIDE
390
11ED1
100
AcDbPolyline
 90
      140
 70
     1
 43
0.0
 10
-25.05031947799958
 20
95.85632467124832
 10
-25.05031947799958
 20
95.75632467124835
 10
-24.20031947799959
 20
95.75632467124835
 10
-24.20031947799956
 20
95.85632467124832
 42
-0.4142135623730867
 10
-23.95031947799959
 20
96.10632467124834
 10
-23.60031947799959
 20
96.10632467124832
 42
-0.4142135623731117
 10
-23.35031947799959
 20
95.85632467124832
 10
-23.35031947799959
 20
95.75632467124835
 10
-22.5003194779996
 20
95.75632467124835
 10
-22.50031947799962
 20
95.85632467124832
 42
-0.414213562373095
 10
-22.2503194779996
 20
96.10632467124834
 10
-21.9003194779996
 20
96.10632467124832
 42
-0.4142135623731117
 10
-21.6503194779996
 20
95.85632467124832
 10
-21.6503194779996
 20
95.75632467124835
 10
-20.80031947799961
 20
95.75632467124835
 10
-20.80031947799958
 20
95.85632467124832
 42
-0.4142135623731033
 10
-20.55031947799958
 20
96.10632467124832
 10
-20.00031947799957
 20
96.10632467124832
 42
-0.4142135623730992
 10
-19.5003194779996
 20
95.60632467124834
 10
-19.50031947799957
 20
93.90632467124833
 42
-0.4142135623731159
 10
-20.00031947799957
 20
93.40632467124836
 10
-20.29321269681304
 20
93.40632467124833
 42
-0.1989123673796368
 10
-20.64676608740632
 20
93.55277128065508
 10
-21.14676608740629
 20
94.05277128065502
 42
0.6681786379193104
 10
-22.0003194779996
 20
93.69921789006177
 10
-22.00031947799957
 20
91.81205314611039
 42
0.0738119385803002
 10
-21.98738511452146
 20
91.72491348620584
 10
-21.78833671227616
 20
91.06918501134383
 42
0.330302971774036
 10
-21.50127107575426
 20
90.8563246712484
 10
-20.00031947799957
 20
90.85632467124843
 42
-0.4142135623731075
 10
-19.5003194779996
 20
90.3563246712484
 10
-19.5003194779996
 20
89.85632467124843
 42
-0.4142135623730409
 10
-20.00031947799948
 20
89.35632467124843
 10
-20.86380959476068
 20
89.35632467124823
 42
0.503416922637362
 10
-21.1508752312825
 20
88.96918501134367
 10
-21.02356467285384
 20
88.5497837131138
 42
0.3303029717740548
 10
-20.42551126343326
 20
88.10632467124834
 10
-4.500319477999597
 20
88.10632467124834
 42
-0.414213562373095
 10
-4.000319477999597
 20
87.60632467124834
 10
-4.000319477999568
 20
86.10632467124834
 42
0.414213562373095
 10
-3.500319477999625
 20
85.60632467124834
 10
0.499680522000034
 20
85.60632467124834
 42
0.414213562373095
 10
0.999680522000034
 20
86.10632467124834
 10
0.999680522000034
 20
86.60632467124829
 42
0.4142135623731366
 10
0.4996805219999771
 20
87.10632467124829
 10
-0.5003194779999092
 20
87.10632467124815
 42
-0.9999999999999857
 10
-0.5003194779996818
 20
88.10632467124823
 10
2.999680522000403
 20
88.10632467124834
 10
2.999680522000403
 20
80.50632470657636
 10
2.699680522000392
 20
80.20632470657635
 10
2.999680522000403
 20
79.9063247065764
 10
2.999680522000403
 20
76.60632470657636
 42
-0.414213562373095
 10
2.499680522000403
 20
76.10632470657636
 10
-1.000319466245998
 20
76.10632470657636
 10
-1.000319466245998
 20
80.10632470657639
 10
-0.0003466294483303
 20
80.10632470657639
 10
-0.0003466294483303
 20
82.60632470657633
 42
0.414213562373095
 10
-1.000346629448302
 20
83.60632470657633
 10
-4.93101822896557
 20
83.60632470657633
 42
0.4663076581550175
 10
-5.915825981977747
 20
82.43267652890934
 10
-4.903792386037111
 20
76.69314879540984
 42
-0.4663076581549983
 10
-5.396196262543214
 20
76.10632470657636
 10
-28.14804448417127
 20
76.10632470657633
 42
-0.2446984432290342
 10
-28.39379009745798
 20
76.23425177567101
 10
-29.06306617224095
 20
77.19007706783252
 42
-0.6100294174932317
 10
-28.9003194779996
 20
77.50632470657634
 10
-28.30031947799961
 20
77.50632470657634
 10
-28.30031947799961
 20
81.30632467124836
 42
0.414213562373102
 10
-28.60031947799962
 20
81.60632467124832
 10
-30.60031947799962
 20
81.60632467124832
 42
0.4142135623730925
 10
-31.60031947799959
 20
80.60632467124832
 10
-31.60031947799959
 20
79.47445685412178
 42
0.5205670505517563
 10
-31.33191544933445
 20
79.28651832996461
 10
-30.56872350666472
 20
79.56429748012822
 42
-0.8025848516715943
 10
-30.35889812176228
 20
79.2349375997337
 10
-31.3946178314342
 20
78.19921789006177
 42
-0.1989123673796591
 10
-32.10172461262076
 20
77.90632467124833
 10
-32.30031947799961
 20
77.90632467124836
 42
-0.4142135623730951
 10
-33.30031947799961
 20
78.90632467124833
 10
-33.30031947799958
 20
94.10632467124837
 42
0.414213562373095
 10
-33.60031947799956
 20
94.40632467124836
 10
-35.80031947799961
 20
94.40632467124833
 42
0.414213562373095
 10
-36.80031947799958
 20
93.40632467124836
 10
-36.80031947799961
 20
92.26091692406855
 42
0.5205670505517428
 10
-36.53191544933446
 20
92.07297839991138
 10
-35.46872350666462
 20
92.45994862035487
 42
-0.8025848516715943
 10
-35.2588981217622
 20
92.13058873996034
 10
-36.64174083423691
 20
90.74774602748563
 42
0.8025848516716141
 10
-36.43191544933447
 20
90.41838614709117
 10
-35.48153196974471
 20
90.76429744480019
 42
-0.8025848516716012
 10
-35.27170658484226
 20
90.43493756440567
 10
-36.10742625918613
 20
89.59921789006178
 42
-0.1989123673796591
 10
-36.81453304037268
 20
89.30632467124833
 10
-37.20031947799959
 20
89.3063246712483
 42
-0.414213562373095
 10
-38.20031947799959
 20
90.30632467124833
 10
-38.20031947799959
 20
95.60632467124834
 42
-0.414213562373095
 10
-37.70031947799959
 20
96.10632467124834
 10
-37.20031947799959
 20
96.10632467124834
 42
-0.41421356237312
 10
-36.95031947799959
 20
95.85632467124832
 10
-36.95031947799959
 20
95.75632467124835
 10
-36.10031947799959
 20
95.75632467124835
 10
-36.10031947799959
 20
95.85632467124832
 42
-0.414213562373095
 10
-35.85031947799959
 20
96.10632467124832
 10
-35.5003194779996
 20
96.10632467124834
 42
-0.414213562373095
 10
-35.2503194779996
 20
95.85632467124832
 10
-35.2503194779996
 20
95.75632467124835
 10
-34.4003194779996
 20
95.75632467124835
 10
-34.4003194779996
 20
95.85632467124832
 42
-0.414213562373095
 10
-34.1503194779996
 20
96.10632467124832
 10
-33.80031947799958
 20
96.10632467124832
 42
-0.41421356237312
 10
-33.55031947799958
 20
95.85632467124832
 10
-33.55031947799961
 20
95.75632467124835
 10
-32.70031947799959
 20
95.75632467124835
 10
-32.70031947799959
 20
95.85632467124832
 42
-0.4142135623730784
 10
-32.45031947799961
 20
96.10632467124832
 10
-32.10031947799959
 20
96.10632467124832
 42
-0.41421356237312
 10
-31.85031947799959
 20
95.85632467124832
 10
-31.85031947799959
 20
95.75632467124835
 10
-31.0003194779996
 20
95.75632467124835
 10
-31.00031947799962
 20
95.85632467124832
 42
-0.4142135623730867
 10
-30.7503194779996
 20
96.10632467124832
 10
-30.4003194779996
 20
96.10632467124834
 42
-0.4142135623730867
 10
-30.1503194779996
 20
95.85632467124837
 10
-30.1503194779996
 20
95.75632467124835
 10
-29.30031947799958
 20
95.75632467124835
 10
-29.30031947799958
 20
95.85632467124832
 42
-0.4142135623730868
 10
-29.05031947799961
 20
96.10632467124837
 10
-28.70031947799961
 20
96.10632467124834
 42
-0.4142135623731033
 10
-28.45031947799961
 20
95.85632467124837
 10
-28.45031947799959
 20
95.75632467124835
 10
-27.60031947799959
 20
95.75632467124835
 10
-27.60031947799959
 20
95.85632467124837
 42
-0.4142135623730867
 10
-27.35031947799959
 20
96.10632467124832
 10
-27.0003194779996
 20
96.10632467124837
 42
-0.4142135623730867
 10
-26.7503194779996
 20
95.85632467124832
 10
-26.7503194779996
 20
95.75632467124835
 10
-25.9003194779996
 20
95.75632467124835
 10
-25.9003194779996
 20
95.85632467124832
 42
-0.4142135623730949
 10
-25.6503194779996
 20
96.10632467124832
 10
-25.30031947799958
 20
96.10632467124837
 42
-0.4142135623730867
  0
LWPOLYLINE
  5
11D5D
330
11CD7
100
AcDbEntity
  8
ALU_OUTSIDE
390
11ED1
100
AcDbPolyline
 90
      179
 70
     1
 43
0.0
 10
-37.90031947799957
 20
81.20624532656605
 42
0.4142135623731034
 10
-38.20031947799956
 20
80.90624532656607
 10
-38.20031947799956
 20
76.10632467124829
 10
-43.0003360544101
 20
76.10632467124829
 10
-43.00033605441007
 20
77.5063246712483
 42
-0.4142135623731034
 10
-42.70033605441009
 20
77.80632467124828
 10
-40.20031947799956
 20
77.80632467124828
 42
0.414213562373095
 10
-39.90031947799955
 20
78.10632467124829
 10
-39.90031947799955
 20
89.3338837806972
 42
0.450467153690805
 10
-41.02218882140474
 20
90.32642993233851
 10
-50.08991315193896
 20
89.21305338202522
 42
0.3297711771690349
 10
-50.95286448289332
 20
88.39408211149895
 10
-52.60134047047703
 20
79.0410396474713
 42
0.4662850057637685
 10
-52.40437633560512
 20
78.80632467124828
 10
-51.79730018928194
 20
78.8063246712483
 42
0.1952056129037213
 10
-51.65791164203139
 20
78.8628993147196
 10
-50.43668873653255
 20
80.04975002777694
 42
-0.1952056129037266
 10
-50.297300189282
 20
80.10632467124823
 10
-50.197300189282
 20
80.10632467124823
 42
-0.4662850057637858
 10
-50.0003360544101
 20
79.87160969502524
 10
-50.6202711590779
 20
76.3542522069137
 42
-0.3639913060136886
 10
-50.91571736138576
 20
76.10632467124823
 10
-54.40337191953819
 20
76.10632467124826
 42
-0.4662850057637598
 10
-54.60033605441009
 20
76.34103964747125
 10
-52.49850377062714
 20
88.26631290019311
 42
0.5040181606716811
 10
-53.05184877950947
 20
88.84937341657131
 10
-58.79905370343275
 20
88.14370538356845
 42
0.3297711771690504
 10
-59.66200503438711
 20
87.32473411304214
 10
-61.12200817961948
 20
79.04103964747127
 42
0.4662850057637771
 10
-60.92504404474758
 20
78.80632467124828
 10
-60.59982990980305
 20
78.80632467124825
 42
0.1952056129037361
 10
-60.4604413625525
 20
78.86289931471954
 10
-59.2392184570536
 20
80.04975002777694
 42
-0.1952056129037213
 10
-59.09982990980305
 20
80.10632467124823
 10
-58.99982990980305
 20
80.10632467124823
 42
-0.4142551471242757
 10
-58.79982991181879
 20
79.9062962758215
 10
-58.80021603420877
 20
77.18668660300672
 42
-0.1316163882721939
 10
-58.84040841004983
 20
77.0367291961468
 10
-59.29097517257682
 20
76.25632467124824
 42
-0.2679491924311316
 10
-59.55078279371216
 20
76.10632467124823
 10
-62.8048732756917
 20
76.10632467124826
 42
-0.4662850057637599
 10
-63.10031947799956
 20
76.45839713558279
 10
-61.20764432212093
 20
87.19696490173637
 42
0.5040181606716825
 10
-61.76098933100326
 20
87.7800254181145
 10
-65.32469334668059
 20
87.34245758536166
 42
0.3788661086953254
 10
-65.50031947799957
 20
87.1439483550334
 10
-65.50031947799957
 20
86.60632467124829
 42
-0.414213562373095
 10
-65.70031947799956
 20
86.40632467124827
 10
-66.80031947799955
 20
86.4063246712483
 42
-0.414213562373095
 10
-67.00031947799957
 20
86.60632467124829
 10
-67.00031947799954
 20
86.91065768931786
 42
0.4504671536907869
 10
-67.2246933466806
 20
87.10916691964614
 10
-67.48706938655403
 20
87.07695119279883
 42
0.3297711771690349
 10
-68.35002071750836
 20
86.25797992227255
 10
-69.62200817961943
 20
79.0410396474713
 42
0.4662850057637685
 10
-69.42504404474752
 20
78.80632467124828
 10
-69.10031947799953
 20
78.80632467124828
 42
0.1952056129037213
 10
-68.96093093074899
 20
78.8628993147196
 10
-67.73970802525008
 20
80.04975002777697
 42
-0.1952056129037213
 10
-67.60031947799956
 20
80.10632467124829
 10
-67.50031947799954
 20
80.10632467124826
 42
-0.414213562373095
 10
-67.30031947799955
 20
79.90632467124827
 10
-67.30031947799955
 20
77.18670942897761
 42
-0.1316524975873946
 10
-67.34051185686423
 20
77.03670942897763
 10
-67.79106720681071
 20
76.25632467124827
 42
-0.2679491924311305
 10
-68.05087482794607
 20
76.10632467124829
 10
-71.3048732756917
 20
76.10632467124826
 42
-0.4662850057637685
 10
-71.60031947799956
 20
76.45839713558279
 10
-69.89566000524218
 20
86.1302107109667
 42
0.5040181606716811
 10
-70.44900501412451
 20
86.71327122734492
 10
-72.83688028102111
 20
86.42007701120811
 42
0.3788661086953174
 10
-73.10031947799956
 20
86.12231316571571
 10
-73.10031947799956
 20
85.50571935471162
 42
0.1895800480667787
 10
-73.0199434026749
 20
85.30135367337003
 10
-72.28285675263331
 20
84.50923504638114
 42
-0.414213562373095
 10
-72.29811499596707
 20
84.08524544036423
 10
-72.59094689553419
 20
83.81275786524215
 42
-0.414213562373095
 10
-73.01493650155109
 20
83.82801610857594
 10
-74.01994340267493
 20
84.90805830793967
 42
-0.189580048066789
 10
-74.10031947799956
 20
85.1124239892812
 10
-74.10031947799956
 20
85.90375972522928
 42
0.4823582210241611
 10
-74.46781947799954
 20
86.19606735427787
 42
0.3492015436175746
 10
-77.80031947799955
 20
82.00632467124827
 10
-77.80031947799955
 20
79.00632467124827
 42
0.663029638300907
 10
-77.46093093074902
 20
78.86289931471957
 10
-76.23970802525011
 20
80.04975002777697
 42
-0.1952056129037317
 10
-76.10031947799956
 20
80.10632467124826
 10
-76.00031947799957
 20
80.10632467124826
 42
-0.414213562373095
 10
-75.80031947799955
 20
79.90632467124827
 10
-75.80031947799955
 20
77.18670942897761
 42
-0.1316524975873946
 10
-75.84051185686423
 20
77.0367094289776
 10
-76.29106720681074
 20
76.25632467124827
 42
-0.267949192431124
 10
-76.55087482794607
 20
76.10632467124826
 10
-79.00031947799957
 20
76.10632467124826
 42
-0.414213562373095
 10
-79.50031947799957
 20
76.60632467124826
 10
-79.50031947799957
 20
80.00632467124827
 10
-79.30031947799955
 20
80.20632467124828
 10
-79.50031947799957
 20
80.40632467124827
 10
-79.50031947799954
 20
82.00632467124827
 42
-0.3788661086953174
 10
-74.23153553843045
 20
87.96160158109622
 10
-39.90031947799957
 20
92.176944870339
 10
-39.90031947799957
 20
94.85632467124826
 10
-41.0895274870106
 20
94.85632467124826
 42
-0.9999999999999999
 10
-41.08952748701057
 20
96.10632467124829
 10
-38.50031947799957
 20
96.10632467124829
 42
-0.4142135623730867
 10
-38.20031947799956
 20
95.80632467124828
 10
-38.20031947799956
 20
89.30632467124828
 42
0.4142135623730867
 10
-37.90031947799955
 20
89.00632467124827
 10
-35.90031947799957
 20
89.00632467124824
 42
0.4142135623731034
 10
-35.60031947799953
 20
89.30632467124825
 10
-35.60031947799956
 20
89.80632467124825
 42
-0.5176380902050456
 10
-35.78888128631598
 20
90.0729913379149
 10
-35.60031947799956
 20
90.60632467124826
 42
-0.5176380902050456
 10
-35.78888128631598
 20
90.87299133791491
 10
-35.60031947799956
 20
91.40632467124824
 42
-0.5176380902050636
 10
-35.78888128631598
 20
91.67299133791492
 10
-35.60031947799959
 20
92.20632467124825
 42
-0.5176380902050456
 10
-35.78888128631601
 20
92.4729913379149
 10
-35.60031947799956
 20
93.00632467124824
 42
-0.5176380902050275
 10
-35.78888128631598
 20
93.27299133791492
 10
-35.50603857384135
 20
94.0729913379149
 42
-0.3178372451957787
 10
-35.03463405305033
 20
94.40632467124824
 10
-34.30031947799958
 20
94.40632467124824
 42
-0.414213562373095
 10
-34.0003194779996
 20
94.10632467124826
 10
-34.00031947799957
 20
89.00632467124824
 42
-0.267949192431124
 10
-33.50031947799957
 20
88.14029926746382
 10
-33.50031947799957
 20
87.19675048510094
 42
-0.267949192431124
 10
-34.00031947799957
 20
86.33072508131649
 10
-34.67960191281165
 20
85.93854118472196
 42
-0.3394542588633688
 10
-35.04173394716759
 20
85.98621677150133
 10
-35.11948179895055
 20
86.06396462328426
 42
-0.339454258863362
 10
-35.16715738572989
 20
86.42609665764023
 10
-34.65895750512504
 20
87.30632467124828
 10
-34.65895750512504
 20
87.60632467124829
 10
-37.20014916027461
 20
87.60632467124829
 10
-37.20014916027461
 20
87.30632467124828
 10
-36.74375369348499
 20
86.51582453442448
 42
-0.3394542588633566
 10
-36.79142928026434
 20
86.15369250006852
 10
-37.0475793297089
 20
85.89754245062396
 42
-0.3394542588633687
 10
-37.40971136406489
 20
85.84986686384461
 10
-38.20031947799956
 20
86.30632467124828
 10
-38.40031947799955
 20
86.30632467124828
 10
-38.40031947799955
 20
83.90616584183799
 10
-38.20031947799956
 20
83.90616584183799
 10
-38.20031947799956
 20
83.90585395072016
 10
-37.4094129392081
 20
84.36248405379523
 42
-0.3394542588633565
 10
-37.04728090485213
 20
84.31480846701585
 10
-36.79089010343606
 20
84.05841766559978
 42
-0.3394542588633687
 10
-36.74321451665671
 20
83.69628563124378
 10
-37.19957046018303
 20
82.90585395072016
 10
-37.19957046018303
 20
82.60585395072015
 10
-34.65953620521674
 20
82.60585395072015
 10
-34.65953620521674
 20
82.90585395072016
 10
-35.16769656255823
 20
83.786013508028
 42
-0.3394542588633565
 10
-35.12002097577889
 20
84.14814554238394
 10
-35.04203237202438
 20
84.22613414613842
 42
-0.3394542588633856
 10
-34.67990033766841
 20
84.2738097329178
 10
-33.80031947799955
 20
83.76598348681394
 42
-0.267949192431124
 10
-33.30031947799955
 20
82.89995808302949
 10
-33.30031947799955
 20
77.90632467124827
 42
0.414213562373095
 10
-33.00031947799957
 20
77.60632467124826
 10
-31.00031947799957
 20
77.60632467124826
 42
0.4142135623730784
 10
-30.70031947799956
 20
77.9063246712483
 10
-30.70031947799956
 20
78.60632467124829
 42
-0.517638090205052
 10
-30.88888128631598
 20
78.87299133791494
 10
-30.70031947799956
 20
79.40632467124827
 42
-0.517638090204999
 10
-30.88888128631598
 20
79.67299133791495
 10
-30.70031947799956
 20
80.20632467124828
 42
-0.6482315195103806
 10
-30.84939067649955
 20
80.5396580045816
 10
-30.22329164279961
 20
81.23965800458161
 42
-0.2134217652834071
 10
-29.85061364654962
 20
81.40632467124827
 10
-29.50031947799957
 20
81.40632467124827
 42
-0.4142135623730784
 10
-29.20031947799956
 20
81.10632467124826
 10
-29.20031947799956
 20
77.60632467124826
 10
-29.50031947799957
 20
77.60632467124826
 10
-29.50031947799957
 20
76.10632467124826
 10
-35.00031947799965
 20
76.10632467124829
 10
-35.00031947799965
 20
80.90624532656607
 42
0.414213562373095
 10
-35.30031947799964
 20
81.20624532656605
  0
LWPOLYLINE
  5
11D5F
330
11CD7
100
AcDbEntity
  8
PVC_INSIDE
390
11ED1
100
AcDbPolyline
 90
        8
 70
     1
 43
0.0
 10
-7.488454635000295
 20
77.80632470657643
 42
0.4663076581550172
 10
-7.193012309096673
 20
78.15841915987652
 10
-7.880687533859827
 20
82.0584191598765
 42
0.3639702342661918
 10
-8.176129859763506
 20
82.3063247065764
 10
-13.9003194779996
 20
82.3063247065764
 42
0.414213562373095
 10
-14.20031947799959
 20
82.00632470657642
 10
-14.20031947799959
 20
78.10632470657642
 42
0.414213562373095
 10
-13.90031947799957
 20
77.80632470657643
  0
LWPOLYLINE
  5
11D60
330
11CD7
100
AcDbEntity
  8
PVC_INSIDE
390
11ED1
100
AcDbPolyline
 90
       12
 70
     1
 43
0.0
 10
-8.122771821559951
 20
83.50632467124841
 10
-8.122771821559951
 20
83.43134737952515
 10
-8.100726951118787
 20
83.30632470657643
 10
-13.9003194779996
 20
83.30632470657643
 42
-0.414213562373095
 10
-14.20031947799959
 20
83.60632470657644
 10
-14.20031947799959
 20
86.10632467124832
 42
-0.414213562373095
 10
-13.90031947799957
 20
86.40632467124833
 10
-6.500319477999568
 20
86.40632467124833
 42
-0.4142135623731033
 10
-6.000319477999568
 20
85.90632467124836
 10
-6.000319477999597
 20
85.50632467124841
 42
-0.414213562373095
 10
-6.500319477999597
 20
85.00632467124841
 10
-6.622771821559951
 20
85.00632467124841
 42
0.414213562373095
  0
LWPOLYLINE
  5
11D61
330
11CD7
100
AcDbEntity
  8
PVC_INSIDE
390
11ED1
100
AcDbPolyline
 90
       32
 70
     1
 43
0.0
 10
-17.5003194779996
 20
84.70632467124817
 42
0.4142135623730784
 10
-17.80031947799958
 20
85.00632467124818
 10
-18.30031947799958
 20
85.00632467124818
 10
-18.30031947799958
 20
86.10632467124832
 42
-0.414213562373095
 10
-18.0003194779996
 20
86.40632467124833
 10
-16.0003194779996
 20
86.40632467124833
 42
-0.414213562373095
 10
-15.70031947799961
 20
86.10632467124834
 10
-15.70031947799961
 20
85.00632467124818
 10
-16.20031947799959
 20
85.00632467124818
 42
0.414213562373095
 10
-16.50031947799957
 20
84.70632467124817
 10
-16.50031947799962
 20
84.30632467124819
 42
0.414213562373095
 10
-16.20031947799961
 20
84.00632467124821
 10
-15.70031947799961
 20
84.00632467124818
 10
-15.70031947799961
 20
82.00632467124841
 10
-16.20031947799959
 20
82.00632467124841
 42
0.4142135623730617
 10
-16.5003194779996
 20
81.70632467124845
 10
-16.50031947799957
 20
81.30632467124842
 42
0.414213562373095
 10
-16.20031947799959
 20
81.00632467124844
 10
-15.70031947799961
 20
81.00632467124844
 10
-15.70031947799961
 20
78.1063247065765
 42
-0.414213562373095
 10
-16.0003194779996
 20
77.80632470657649
 10
-18.0003194779996
 20
77.80632470657649
 42
-0.414213562373095
 10
-18.30031947799961
 20
78.1063247065765
 10
-18.30031947799958
 20
81.00632467124844
 10
-17.80031947799958
 20
81.00632467124844
 42
0.4142135623730617
 10
-17.5003194779996
 20
81.30632467124845
 10
-17.50031947799957
 20
81.70632467124845
 42
0.414213562373095
 10
-17.80031947799958
 20
82.00632467124846
 10
-18.30031947799958
 20
82.00632467124841
 10
-18.30031947799958
 20
84.00632467124818
 10
-17.80031947799958
 20
84.00632467124821
 42
0.414213562373095
 10
-17.50031947799957
 20
84.30632467124819
  0
LWPOLYLINE
  5
11D62
330
11CD7
100
AcDbEntity
  8
PVC_INSIDE
390
11ED1
100
AcDbPolyline
 90
       10
 70
     1
 43
0.0
 10
-31.00031947799957
 20
94.40632467124833
 42
0.414213562373095
 10
-31.30031947799958
 20
94.10632467124837
 10
-31.30031947799958
 20
88.90632467124836
 42
0.4142135623730784
 10
-31.0003194779996
 20
88.60632467124834
 10
-23.22190810914935
 20
88.60632467124834
 42
0.5034169226374389
 10
-22.93484247262745
 20
88.99346433115288
 10
-23.45720493307255
 20
90.71429170604763
 42
-0.0738119385802488
 10
-23.5003194779996
 20
91.0047572390629
 10
-23.5003194779996
 20
94.10632467124832
 42
0.414213562373095
 10
-23.80031947799958
 20
94.40632467124833
  0
LWPOLYLINE
  5
11D63
330
11CD7
100
AcDbEntity
  8
PVC_INSIDE
390
11ED1
100
AcDbPolyline
 90
       15
 70
     1
 43
0.0
 10
-20.10031947799962
 20
77.80632470657652
 42
0.414213562373095
 10
-19.80031947799961
 20
78.10632470657653
 10
-19.80031947799961
 20
86.10632467124832
 42
0.4142135623730784
 10
-20.10031947799959
 20
86.40632467124833
 10
-20.75051126343322
 20
86.40632467124833
 42
-0.2746391976847761
 10
-22.50694690488749
 20
87.44980293211789
 42
0.2746391976847761
 10
-22.77041225110563
 20
87.60632467124834
 10
-31.0003194779996
 20
87.60632467124834
 42
0.414213562373095
 10
-31.30031947799958
 20
87.30632467124833
 10
-31.30031947799958
 20
83.50632467124835
 42
0.414213562373095
 10
-31.0003194779996
 20
83.20632467124834
 10
-28.10031947799959
 20
83.20632467124834
 42
-0.414213562373095
 10
-26.60031947799962
 20
81.70632467124834
 10
-26.60031947799959
 20
78.10632470657653
 42
0.4142135623730617
 10
-26.30031947799961
 20
77.80632470657649
  0
LWPOLYLINE
  5
11D64
330
11CD7
100
AcDbEntity
  8
PVC_INSIDE
390
11ED1
100
AcDbPolyline
 90
       10
 70
     1
 43
0.0
 10
1.49968052200046
 20
94.10632467124834
 42
0.414213562373095
 10
0.9996805220004532
 20
94.60632467124834
 10
-13.80031947799949
 20
94.60632467124834
 42
0.4142135623730951
 10
-14.30031947799949
 20
94.10632467124834
 10
-14.30031947799949
 20
92.96184043532946
 42
0.319275588652666
 10
-13.9645215855332
 20
92.48957179580167
 10
-5.75165169422143
 20
89.63405603172048
 42
0.0838490775257229
 10
-5.587449586687733
 20
89.60632467124834
 10
0.9996805220004532
 20
89.60632467124834
 42
0.414213562373095
 10
1.49968052200046
 20
90.10632467124836
  0
LWPOLYLINE
  5
11D65
330
11CD7
100
AcDbEntity
  8
PVC_OUTSIDE
390
11ED1
100
AcDbPolyline
 90
       94
 70
     1
 43
0.0
 10
2.999680522000347
 20
95.60632467124827
 42
0.4142135623730794
 10
2.499680522000368
 20
96.10632467124826
 10
0.2890084781267639
 20
96.10632467124834
 42
0.408707826070711
 10
0.0015944181854373
 20
95.86691775107417
 10
0.0015944181854373
 20
95.74721429098706
 10
-0.8606477616384041
 20
95.74721429098706
 10
-0.8606477616384076
 20
95.86691775107421
 42
0.4143446109809615
 10
-1.148061821579724
 20
96.1063246712483
 10
-1.435475881521022
 20
96.10632467124834
 42
0.4087078260707431
 10
-1.72288994146237
 20
95.86691775107415
 10
-1.72288994146237
 20
95.74721429098706
 10
-2.585132121286335
 20
95.74721429098706
 10
-2.585132121286339
 20
95.8669177510742
 42
0.4143446109809733
 10
-2.872546181227662
 20
96.1063246712483
 10
-3.15996024116896
 20
96.10632467124834
 42
0.4087078260707314
 10
-3.447374301110301
 20
95.86691775107417
 10
-3.447374301110301
 20
95.74721429098716
 10
-4.309616480934167
 20
95.74721429098706
 10
-4.309616480934171
 20
95.8669177510742
 42
0.4143446109809733
 10
-4.597030540875494
 20
96.1063246712483
 10
-4.884444600816792
 20
96.10632467124834
 42
0.4087078260707314
 10
-5.171858660758133
 20
95.86691775107417
 10
-5.171858660758133
 20
95.74721429098716
 10
-6.034100840581971
 20
95.74721429098706
 10
-6.034100840581974
 20
95.8669177510742
 42
0.4143446109809733
 10
-6.321514900523297
 20
96.1063246712483
 10
-6.608928960464596
 20
96.10632467124834
 42
0.4087078260707314
 10
-6.896343020405936
 20
95.86691775107417
 10
-6.896343020405936
 20
95.74721429098716
 10
-7.758585200229787
 20
95.74721429098706
 10
-7.75858520022979
 20
95.8669177510742
 42
0.414344610980995
 10
-8.04599926017112
 20
96.1063246712483
 10
-8.333413320112395
 20
96.10632467124834
 42
0.4087078260707549
 10
-8.620827380053752
 20
95.86691775107415
 10
-8.62082738005375
 20
95.74721429098706
 10
-9.483069559877727
 20
95.74721429098706
 10
-9.483069559877729
 20
95.86691775107421
 42
0.4143446109809733
 10
-9.770483619819057
 20
96.1063246712483
 10
-10.05789767976034
 20
96.10632467124834
 42
0.4087078260707512
 10
-10.34531173970169
 20
95.86691775107414
 10
-10.34531173970169
 20
95.74721429098716
 10
-11.20755391952554
 20
95.74721429098706
 10
-11.20755391952554
 20
95.86691775107424
 42
0.4143446109809533
 10
-11.49496797946688
 20
96.1063246712483
 10
-11.78238203940816
 20
96.10632467124834
 42
0.4087078260707336
 10
-12.0697960993495
 20
95.86691775107417
 10
-12.0697960993495
 20
95.74721429098716
 10
-12.93203827917337
 20
95.74721429098706
 10
-12.93203827917337
 20
95.86691775107424
 42
0.4143446109809533
 10
-13.2194523391147
 20
96.1063246712483
 10
-13.50686639905598
 20
96.10632467124834
 42
0.4087078260707336
 10
-13.79428045899733
 20
95.86691775107417
 10
-13.79428045899732
 20
95.74721429098716
 10
-14.6565226388213
 20
95.74721429098706
 10
-14.6565226388213
 20
95.86691775107424
 42
0.4143446109809533
 10
-14.94393669876263
 20
96.1063246712483
 10
-15.23135075870391
 20
96.10632467124834
 42
0.4087078260707336
 10
-15.51876481864526
 20
95.86691775107417
 10
-15.51876481864526
 20
95.74721429098706
 10
-16.38100699846912
 20
95.74721429098706
 10
-16.38100699846911
 20
95.86691775107424
 42
0.4143446109809276
 10
-16.66842105841043
 20
96.1063246712483
 10
-16.95583511835173
 20
96.10632467124834
 42
0.4087078260707336
 10
-17.24324917829308
 20
95.86691775107417
 10
-17.24324917829308
 20
95.74721429098706
 10
-18.10549135811693
 20
95.74721429098706
 10
-18.10549135811693
 20
95.86691775107425
 42
0.4143446109808863
 10
-18.39290541805821
 20
96.1063246712483
 10
-18.68031947799954
 20
96.10632467124834
 10
-18.75031947799954
 20
96.10632467124834
 42
0.4142135623730951
 10
-19.25031947799954
 20
95.60632467124834
 10
-19.25031947799954
 20
95.10632467124834
 42
0.4142135623730951
 10
-18.75031947799954
 20
94.60632467124834
 10
-16.30031947799949
 20
94.60632467124834
 42
-0.4142135623730951
 10
-15.80031947799949
 20
94.10632467124834
 10
-15.80031947799949
 20
92.93475179599442
 42
-0.1989123673796545
 10
-15.94676608740618
 20
92.58119840540122
 10
-19.2751932121523
 20
89.25277128065508
 42
-0.1989123673796583
 10
-19.62874660274557
 20
89.10632467124834
 10
-20.40031947799941
 20
89.10632467124834
 42
1.0
 10
-20.40031947799941
 20
88.10632467124834
 10
-18.50742625918611
 20
88.10632467124834
 42
0.1989123673796576
 10
-18.1538728685928
 20
88.2527712806551
 10
-15.32934982439782
 20
91.07729432485006
 42
-0.2875575068629622
 10
-14.81159432627085
 20
91.19600957378466
 10
-6.004979993918511
 20
88.13405603172048
 42
0.0838490775257196
 10
-5.840777886384846
 20
88.10632467124834
 10
-2.560979649779313
 20
88.10632467124834
 10
-1.560979649779313
 20
87.10632467124834
 10
-2.091309735669313
 20
86.57599458535846
 10
-1.560979649779313
 20
86.04566449946854
 10
-0.5003194779995397
 20
87.10632467124834
 10
-1.500319477999557
 20
88.10632467124834
 10
2.999680522000446
 20
88.10632467124834
  0
INSERT
  5
11D66
330
11CD7
100
AcDbEntity
  8
ASSEMBLY
 62
     3
390
11ED1
100
AcDbBlockReference
  2
DICHTUNG_SW
 10
-54.50008908903444
 20
107.1063247065762
 30
0.0
  0
HATCH
  5
11D67
330
11CD7
100
AcDbEntity
  8
HATCH_ALU
390
11ED1
100
AcDbHatch
 10
0.0
 20
0.0
 30
0.0
210
0.0
220
0.0
230
1.0
  2
ANSI37
 70
     0
 71
     0
 91
        1
 92
        7
 72
     1
 73
     1
 93
       95
 10
-49.01398621643519
 20
106.0983618624815
 42
0.0
 10
-47.15008908904107
 20
106.0983618624815
 42
0.2360679774997415
 10
-46.95008908904128
 20
106.1983618624813
 42
-0.499999999999709
 10
-46.55008908904122
 20
106.1983618624814
 42
0.2360679774996241
 10
-46.35008908904103
 20
106.0983618624815
 42
0.0
 10
-44.48619196162713
 20
106.0983618624817
 42
-0.2007744549297163
 10
-44.13011540393257
 20
105.9493739492543
 42
0.2007744549296846
 10
-41.63757950007147
 20
104.9064585566628
 42
0.0
 10
-40.66341985431378
 20
104.9064585566628
 42
-0.3616214947868178
 10
-39.68008768827785
 20
104.0882767384797
 42
0.3616214947868422
 10
-38.50008908903413
 20
103.1064585566597
 42
0.0
 10
-37.2009255813947
 20
103.1064585566598
 42
0.3639702342661653
 10
-36.95472364314173
 20
103.313046512243
 42
0.0
 10
-36.90182554892862
 20
103.6130465122462
 42
0.4663076581550111
 10
-37.14802748718139
 20
103.9064585566626
 42
0.0
 10
-38.25008908903371
 20
103.9064585566626
 42
-0.4142135623730951
 10
-38.50008908903371
 20
104.1564585566626
 42
0.0
 10
-38.50008908903371
 20
104.6564585566628
 42
-0.4142135623730951
 10
-38.25008908903371
 20
104.9064585566628
 42
0.0
 10
-31.75008908903371
 20
104.9064585566628
 42
-0.4142135623720295
 10
-31.50008908903371
 20
104.6564585566637
 42
0.0
 10
-31.50008908903189
 20
104.1564585566636
 42
-0.4142135623740982
 10
-31.75008908903172
 20
103.9064585566628
 42
0.0
 10
-32.852150690886
 20
103.9064585566626
 42
0.466307658154538
 10
-33.09835262913737
 20
103.6130465122482
 42
0.0
 10
-33.04545453492418
 20
103.3130465122422
 42
0.3639702342666251
 10
-32.79925259667147
 20
103.106458556659
 42
0.0
 10
-29.00092558139243
 20
103.1064585566597
 42
0.3639702342672033
 10
-28.75472364313972
 20
103.3130465122435
 42
0.0
 10
-28.70182554892739
 20
103.6130465122488
 42
0.4663076581538004
 10
-28.94802748717887
 20
103.9064585566626
 42
0.0
 10
-30.05008908903314
 20
103.9064585566628
 42
-0.4142135623741025
 10
-30.30008908903298
 20
104.1564585566636
 42
0.0
 10
-30.30008908903116
 20
104.6564585566637
 42
-0.4142135623720295
 10
-30.05008908903116
 20
104.9064585566628
 42
0.0
 10
-23.55008908903116
 20
104.9064585566628
 42
-0.4142135623730951
 10
-23.30008908903116
 20
104.6564585566628
 42
0.0
 10
-23.30008908903116
 20
104.1564585566626
 42
-0.4142135623730951
 10
-23.55008908903116
 20
103.9064585566626
 42
0.0
 10
-24.65215069088348
 20
103.9064585566626
 42
0.4663076581549927
 10
-24.89835262913625
 20
103.6130465122462
 42
0.0
 10
-24.84545453492366
 20
103.3130465122459
 42
0.3639702342662043
 10
-24.59925259667089
 20
103.1064585566629
 42
0.0
 10
-23.10008908903134
 20
103.1064585566629
 42
0.4142135623730951
 10
-22.10008908903134
 20
104.1064585566629
 42
0.0
 10
-22.10008908903134
 20
105.8563247065784
 42
0.4142135623730159
 10
-22.35008908902945
 20
106.1063247065766
 42
0.0
 10
-30.28008107964664
 20
106.1063247065787
 42
-0.1010435127444717
 10
-31.06408535131968
 20
106.2663960932903
 42
0.1010435127445408
 10
-31.75008908903389
 20
106.4064585566628
 42
0.0
 10
-41.63757950007128
 20
106.4064585566628
 42
-0.4691001266911087
 10
-43.6039293419804
 20
108.7717916912444
 42
0.0406226547455231
 10
-43.55081473695917
 20
109.2881805934903
 42
-0.3190437626481396
 10
-42.51467931628582
 20
110.6828231592415
 42
1.025079814138156
 10
-42.91352673444629
 20
111.8142106030967
 42
0.0
 10
-45.57566179736004
 20
110.8009312483865
 42
0.5370305852877206
 10
-45.66720939423642
 20
110.3942898151428
 42
-0.1208963250163141
 10
-45.30974508937226
 20
109.7751434772259
 42
0.3728246932723212
 10
-45.03489448085735
 20
109.5973795884823
 42
-0.4568502517469057
 10
-44.75010293656256
 20
109.3488822662603
 42
-0.2659559833708598
 10
-45.74365067041852
 20
107.6280071114772
 42
-0.4568502517490807
 10
-46.10125143638745
 20
107.7503951625117
 42
0.3728246932738957
 10
-46.39262478417244
 20
107.8995408273612
 42
-0.1208963250156428
 10
-47.10755339389674
 20
107.8995408273616
 42
0.3728246932697645
 10
-47.39892674168772
 20
107.7503951625122
 42
-0.4568502517456495
 10
-47.7565275076566
 20
107.6280071114818
 42
-0.2659559833691945
 10
-48.7500752415053
 20
109.3488822662573
 42
-0.4568502517490449
 10
-48.46528369720589
 20
109.5973795884825
 42
0.372824693273678
 10
-48.19043308868973
 20
109.7751434772257
 42
-0.1208963250162728
 10
-47.83296878382534
 20
110.3942898151425
 42
0.5370305852877747
 10
-47.92451638070161
 20
110.8009312483862
 42
0.0
 10
-50.58665144361514
 20
111.8142106030967
 42
1.025079814137083
 10
-50.98549886177695
 20
110.6828231592419
 42
-0.3190437626480251
 10
-49.94936344110829
 20
109.2881805934911
 42
0.0347547174820686
 10
-49.90908394954549
 20
108.8456864087018
 42
-0.4619706116258177
 10
-51.389862790411
 20
107.1063247065762
 42
0.0
 10
-53.39519887111544
 20
107.1063247065762
 42
0.0349207694917449
 10
-53.67354507303558
 20
107.0868608440594
 42
0.0
 10
-68.20884874047195
 20
105.0440571339853
 42
0.3738846794861064
 10
-69.50008908903189
 20
103.5586550308661
 42
0.0
 10
-69.50008908903098
 20
103.3590682292919
 42
0.8472110680124508
 10
-69.01358675056727
 20
103.278033397886
 42
-0.2824369451575895
 10
-68.81187768734357
 20
103.4445655836644
 42
0.0
 10
-60.73488236427593
 20
104.5797132482556
 42
-0.4557262555325857
 10
-60.4500890890358
 20
104.3321462310701
 42
0.0
 10
-60.4500890890358
 20
103.3590682292937
 42
0.4142135623730951
 10
-60.2000890890358
 20
103.1090682292937
 42
0.0
 10
-59.50008908903644
 20
103.1090682292937
 42
0.4142135623730951
 10
-59.25008908903644
 20
103.3590682292937
 42
0.0
 10
-59.25008908903644
 20
104.5710656500641
 42
-0.3738846794848092
 10
-59.03488236427629
 20
104.8186326672497
 42
0.0
 10
-53.46478542159608
 20
105.6014587409471
 42
-0.0349207694917439
 10
-53.3951988711157
 20
105.6063247065763
 42
0.0
 10
-49.87536519749927
 20
105.6063247065763
 42
0.2654803907379424
 10
-49.44467570696721
 20
105.8523432845289
 42
-0.2654803907379423
 97
        0
 75
     1
 76
     1
 52
180.0
 41
15.0
 77
     0
 78
     2
 53
225.0
 43
0.0
 44
-2.0
 45
1.325825214724776
 46
-1.325825214724777
 79
     0
 53
315.0
 43
0.0
 44
-2.0
 45
1.325825214724777
 46
1.325825214724776
 79
     0
 47
0.0406158323774779
 98
        1
 10
-49.71865017635781
 20
106.7444296253067
  0
LWPOLYLINE
  5
11D68
330
11CD7
100
AcDbEntity
  8
ALU_OUTSIDE
390
11ED1
100
AcDbPolyline
 90
       95
 70
     1
 43
0.0
 10
-37.20092558139456
 20
103.1064585566598
 42
0.3639702342661728
 10
-36.9547236431417
 20
103.3130465122431
 10
-36.9018255489286
 20
103.6130465122463
 42
0.4663076581549442
 10
-37.14802748718145
 20
103.9064585566626
 10
-38.25008908903371
 20
103.9064585566626
 42
-0.4142135623730951
 10
-38.50008908903371
 20
104.1564585566626
 10
-38.50008908903371
 20
104.6564585566628
 42
-0.4142135623730951
 10
-38.25008908903371
 20
104.9064585566628
 10
-31.75008908903371
 20
104.9064585566628
 42
-0.4142135623730951
 10
-31.50008908903371
 20
104.6564585566628
 10
-31.50008908903189
 20
104.1564585566628
 42
-0.4142135623733615
 10
-31.75008908903189
 20
103.9064585566628
 10
-32.85215069088414
 20
103.9064585566626
 42
0.4663076581594181
 10
-33.098352629137
 20
103.6130465122461
 10
-33.04545453492435
 20
103.3130465122431
 42
0.3639702342676798
 10
-32.79925259667149
 20
103.106458556659
 10
-29.00092558139247
 20
103.1064585566597
 42
0.3639702342679035
 10
-28.75472364313961
 20
103.3130465122441
 10
-28.70182554892787
 20
103.6130465122461
 42
0.4663076581594181
 10
-28.94802748718072
 20
103.9064585566626
 10
-30.05008908903298
 20
103.9064585566628
 42
-0.4142135623733615
 10
-30.30008908903298
 20
104.1564585566628
 10
-30.30008908903116
 20
104.6564585566628
 42
-0.4142135623730951
 10
-30.05008908903116
 20
104.9064585566628
 10
-23.55008908903116
 20
104.9064585566628
 42
-0.4142135623730951
 10
-23.30008908903116
 20
104.6564585566628
 10
-23.30008908903116
 20
104.1564585566626
 42
-0.4142135623730951
 10
-23.55008908903116
 20
103.9064585566626
 10
-24.65215069088342
 20
103.9064585566626
 42
0.466307658154944
 10
-24.89835262913627
 20
103.6130465122463
 10
-24.84545453492362
 20
103.3130465122456
 42
0.3639702342660648
 10
-24.59925259667077
 20
103.1064585566629
 10
-23.10008908903134
 20
103.1064585566629
 42
0.4142135623730951
 10
-22.10008908903134
 20
104.1064585566629
 10
-22.10008908903134
 20
105.8563247065802
 42
0.4142135623731117
 10
-22.35008908903134
 20
106.1063247065766
 10
-30.28008107964658
 20
106.1063247065787
 42
-0.1010435127444633
 10
-31.06408535131956
 20
106.2663960932902
 42
0.101043512744532
 10
-31.75008908903371
 20
106.4064585566628
 10
-41.63757950007127
 20
106.4064585566628
 42
-0.4691001266911749
 10
-43.60392934198032
 20
108.7717916912448
 42
0.0406226547455363
 10
-43.55081473695915
 20
109.2881805934908
 42
-0.3190437626480494
 10
-42.51467931628574
 20
110.6828231592415
 42
1.025079814138105
 10
-42.91352673444632
 20
111.8142106030967
 10
-45.5756617973602
 20
110.8009312483865
 42
0.5370305852855703
 10
-45.66720939423746
 20
110.3942898151438
 42
-0.1208963250164866
 10
-45.3097450893724
 20
109.7751434772263
 42
0.3728246932743312
 10
-45.03489448085608
 20
109.5973795884825
 42
-0.4568502517488799
 10
-44.75010293656257
 20
109.3488822662574
 42
-0.2659559833704531
 10
-45.74365067041842
 20
107.6280071114773
 42
-0.4568502517490563
 10
-46.1012514363874
 20
107.7503951625116
 42
0.372824693274402
 10
-46.39262478417274
 20
107.8995408273611
 42
-0.1208963250153892
 10
-47.10755339389559
 20
107.8995408273614
 42
0.372824693271198
 10
-47.39892674168775
 20
107.7503951625121
 42
-0.4568502517457537
 10
-47.75652750765673
 20
107.6280071114818
 42
-0.2659559833691838
 10
-48.7500752415053
 20
109.3488822662574
 42
-0.4568502517489826
 10
-48.46528369720588
 20
109.5973795884825
 42
0.3728246932743434
 10
-48.19043308868956
 20
109.7751434772263
 42
-0.1208963250164875
 10
-47.83296878382404
 20
110.3942898151438
 42
0.537030585285568
 10
-47.92451638070176
 20
110.8009312483862
 10
-50.58665144361518
 20
111.8142106030967
 42
1.025079814138106
 10
-50.98549886177577
 20
110.6828231592415
 42
-0.3190437626480497
 10
-49.94936344110826
 20
109.2881805934897
 42
0.0347547174818842
 10
-49.90908394954565
 20
108.8456864087028
 42
-0.4619706116259924
 10
-51.38986279041089
 20
107.1063247065762
 10
-53.39519887111643
 20
107.1063247065762
 42
0.0349207694917479
 10
-53.67354507303659
 20
107.0868608440592
 10
-68.20884874047212
 20
105.0440571339853
 42
0.3738846794857782
 10
-69.50008908903189
 20
103.5586550308677
 10
-69.50008908903098
 20
103.3590682292927
 42
0.8472110680136653
 10
-69.01358675056733
 20
103.2780333978858
 42
-0.28243694515745
 10
-68.81187768734387
 20
103.4445655836643
 10
-60.73488236427599
 20
104.5797132482556
 42
-0.4557262555326461
 10
-60.4500890890358
 20
104.3321462310701
 10
-60.4500890890358
 20
103.3590682292937
 42
0.4142135623730951
 10
-60.2000890890358
 20
103.1090682292937
 10
-59.50008908903644
 20
103.1090682292937
 42
0.4142135623730951
 10
-59.25008908903644
 20
103.3590682292937
 10
-59.25008908903644
 20
104.5710656500642
 42
-0.3738846794847936
 10
-59.03488236427617
 20
104.8186326672497
 10
-53.46478542159636
 20
105.6014587409471
 42
-0.0349207694917415
 10
-53.39519887111598
 20
105.6063247065763
 10
-49.87536519749935
 20
105.6063247065763
 42
0.2654803907379779
 10
-49.44467570696722
 20
105.8523432845289
 42
-0.2654803907380035
 10
-49.01398621643509
 20
106.0983618624815
 10
-47.15008908904062
 20
106.0983618624815
 42
0.2360679774993097
 10
-46.95008908904126
 20
106.1983618624814
 42
-0.4999999999997726
 10
-46.55008908904117
 20
106.1983618624814
 42
0.2360679775001512
 10
-46.35008908904044
 20
106.0983618624815
 10
-44.48619196162687
 20
106.0983618624817
 42
-0.2007744549296913
 10
-44.13011540393242
 20
105.9493739492542
 42
0.2007744549296835
 10
-41.63757950007127
 20
104.9064585566628
 10
-40.66341985431379
 20
104.9064585566628
 42
-0.3616214947865758
 10
-39.68008768827801
 20
104.0882767384806
 42
0.3616214947871469
 10
-38.50008908903371
 20
103.1064585566597
  0
LINE
  5
11D69
330
11CD7
100
AcDbEntity
  8
HATCH_GASKET
390
11ED1
100
AcDbLine
 10
-34.10133536813675
 20
102.8064585566629
 30
0.0
 11
-33.41902752123038
 21
93.75632467124835
 31
0.0
  0
LINE
  5
11D6B
330
11CD7
100
AcDbEntity
  8
HATCH_GASKET
390
11ED1
100
AcDbLine
 10
-34.22162796943405
 20
102.8064585566629
 30
0.0
 11
-33.63930263173983
 21
93.75632467124835
 31
0.0
  0
LINE
  5
11D6C
330
11CD7
100
AcDbEntity
  8
HATCH_GASKET
390
11ED1
100
AcDbLine
 10
-34.35158490336901
 20
102.8064585566629
 30
0.0
 11
-33.86184618427164
 21
93.75632467124836
 31
0.0
  0
LINE
  5
11D6D
330
11CD7
100
AcDbEntity
  8
HATCH_GASKET
390
11ED1
100
AcDbLine
 10
-35.23115632624252
 20
102.8064585566629
 30
0.0
 11
-35.43591623118308
 21
93.75632467124836
 31
0.0
  0
LINE
  5
11D6E
330
11CD7
100
AcDbEntity
  8
HATCH_GASKET
390
11ED1
100
AcDbLine
 10
-35.85093742009106
 20
102.8064585566629
 30
0.0
 11
-36.66831531306726
 21
93.75632467124835
 31
0.0
  0
LINE
  5
11D6F
330
11CD7
100
AcDbEntity
  8
HATCH_GASKET
390
11ED1
100
AcDbLine
 10
-35.34965475501711
 20
102.8064585566629
 30
0.0
 11
-35.66610765764958
 21
93.75632467124835
 31
0.0
  0
LINE
  5
11D70
330
11CD7
100
AcDbEntity
  8
HATCH_GASKET
390
11ED1
100
AcDbLine
 10
-35.47887041752769
 20
102.8064585566629
 30
0.0
 11
-35.90721846469486
 21
93.75632467124835
 31
0.0
  0
LINE
  5
11D71
330
11CD7
100
AcDbEntity
  8
HATCH_GASKET
390
11ED1
100
AcDbLine
 10
-35.59845215908356
 20
102.8064585566629
 30
0.0
 11
-36.15032276485542
 21
93.75632467124835
 31
0.0
  0
LINE
  5
11D72
330
11CD7
100
AcDbEntity
  8
HATCH_GASKET
390
11ED1
100
AcDbLine
 10
-35.72931097490952
 20
102.8064585566629
 30
0.0
 11
-36.40666329448389
 21
93.75632467124836
 31
0.0
  0
LWPOLYLINE
  5
11D73
330
11CD7
100
AcDbEntity
  8
GASKET_OUTSIDE
390
11ED1
100
AcDbPolyline
 90
        4
 70
     1
 43
0.0
 10
-35.20281949202265
 20
93.75632467124834
 10
-35.10278148503107
 20
102.8064585566629
 10
-35.97455008661422
 20
102.8064585566629
 10
-36.91851932955336
 20
93.75632467124835
  0
LINE
  5
11D74
330
11CD7
100
AcDbEntity
  8
HATCH_GASKET
390
11ED1
100
AcDbLine
 10
-34.72831633730522
 20
102.8064585566629
 30
0.0
 11
-34.52781590789695
 21
93.75632467124835
 31
0.0
  0
LINE
  5
11D75
330
11CD7
100
AcDbEntity
  8
HATCH_GASKET
390
11ED1
100
AcDbLine
 10
-34.48110254576545
 20
102.8064585566629
 30
0.0
 11
-34.08576499511859
 21
93.75632467124836
 31
0.0
  0
LINE
  5
11D76
330
11CD7
100
AcDbEntity
  8
HATCH_GASKET
390
11ED1
100
AcDbLine
 10
-34.59977843460125
 20
102.8064585566629
 30
0.0
 11
-34.30404562663454
 21
93.75632467124834
 31
0.0
  0
LWPOLYLINE
  5
11D77
330
11CD7
100
AcDbEntity
  8
PVC_OUTSIDE
390
11ED1
100
AcDbPolyline
 90
        8
 70
     1
 43
0.0
 10
-33.90008908903425
 20
104.0064585566627
 10
-33.90008908903425
 20
102.8064585566629
 10
-36.10008908903498
 20
102.8064585566629
 10
-36.10008908903498
 20
104.0064585566627
 10
-38.35008908903407
 20
104.0064585566627
 10
-38.35008908903316
 20
104.7564585566627
 10
-31.65008908903427
 20
104.7564585566627
 10
-31.65008908903516
 20
104.0064585566627
  0
LWPOLYLINE
  5
11D78
330
11CD7
100
AcDbEntity
  8
GASKET_OUTSIDE
390
11ED1
100
AcDbPolyline
 90
        4
 70
     1
 43
0.0
 10
-34.85649263073068
 20
102.8064585566629
 10
-34.7530791934893
 20
93.75632467124835
 10
-33.1191445631418
 20
93.75632467124835
 10
-33.94493782782222
 20
102.8064585566629
  0
LWPOLYLINE
  5
11D79
330
11CD7
100
AcDbEntity
  8
PVC_OUTSIDE
390
11ED1
100
AcDbPolyline
 90
        4
 70
     1
 43
0.0
 10
-35.07444612836704
 20
93.75632467124836
 10
-34.87455300689859
 20
93.75632467124836
 10
-34.87455300689859
 20
102.8064585566629
 10
-35.07444612836704
 20
102.8064585566629
  0
LINE
  5
11D7A
330
11CD7
100
AcDbEntity
  8
HATCH_GASKET
390
11ED1
100
AcDbLine
 10
-25.90133536813421
 20
102.8064585566629
 30
0.0
 11
-25.21902752122784
 21
93.75632467124835
 31
0.0
  0
LINE
  5
11D7B
330
11CD7
100
AcDbEntity
  8
HATCH_GASKET
390
11ED1
100
AcDbLine
 10
-26.0216279694315
 20
102.8064585566629
 30
0.0
 11
-25.43930263173728
 21
93.75632467124835
 31
0.0
  0
LINE
  5
11D7C
330
11CD7
100
AcDbEntity
  8
HATCH_GASKET
390
11ED1
100
AcDbLine
 10
-26.15158490336646
 20
102.8064585566629
 30
0.0
 11
-25.66184618426909
 21
93.75632467124836
 31
0.0
  0
LINE
  5
11D7D
330
11CD7
100
AcDbEntity
  8
HATCH_GASKET
390
11ED1
100
AcDbLine
 10
-27.03115632623997
 20
102.8064585566629
 30
0.0
 11
-27.23591623118053
 21
93.75632467124836
 31
0.0
  0
LINE
  5
11D7E
330
11CD7
100
AcDbEntity
  8
HATCH_GASKET
390
11ED1
100
AcDbLine
 10
-27.65093742008851
 20
102.8064585566629
 30
0.0
 11
-28.46831531306471
 21
93.75632467124835
 31
0.0
  0
LINE
  5
11D7F
330
11CD7
100
AcDbEntity
  8
HATCH_GASKET
390
11ED1
100
AcDbLine
 10
-27.14965475501456
 20
102.8064585566629
 30
0.0
 11
-27.46610765764703
 21
93.75632467124835
 31
0.0
  0
LINE
  5
11D80
330
11CD7
100
AcDbEntity
  8
HATCH_GASKET
390
11ED1
100
AcDbLine
 10
-27.27887041752515
 20
102.8064585566629
 30
0.0
 11
-27.70721846469232
 21
93.75632467124835
 31
0.0
  0
LINE
  5
11D81
330
11CD7
100
AcDbEntity
  8
HATCH_GASKET
390
11ED1
100
AcDbLine
 10
-27.39845215908101
 20
102.8064585566629
 30
0.0
 11
-27.95032276485287
 21
93.75632467124835
 31
0.0
  0
LINE
  5
11D82
330
11CD7
100
AcDbEntity
  8
HATCH_GASKET
390
11ED1
100
AcDbLine
 10
-27.52931097490698
 20
102.8064585566629
 30
0.0
 11
-28.20666329448134
 21
93.75632467124836
 31
0.0
  0
LWPOLYLINE
  5
11D83
330
11CD7
100
AcDbEntity
  8
GASKET_OUTSIDE
390
11ED1
100
AcDbPolyline
 90
        4
 70
     1
 43
0.0
 10
-27.0028194920201
 20
93.75632467124834
 10
-26.90278148502853
 20
102.8064585566629
 10
-27.77455008661168
 20
102.8064585566629
 10
-28.71851932955081
 20
93.75632467124835
  0
LINE
  5
11D84
330
11CD7
100
AcDbEntity
  8
HATCH_GASKET
390
11ED1
100
AcDbLine
 10
-26.52831633730268
 20
102.8064585566629
 30
0.0
 11
-26.3278159078944
 21
93.75632467124835
 31
0.0
  0
LINE
  5
11D85
330
11CD7
100
AcDbEntity
  8
HATCH_GASKET
390
11ED1
100
AcDbLine
 10
-26.2811025457629
 20
102.8064585566629
 30
0.0
 11
-25.88576499511604
 21
93.75632467124836
 31
0.0
  0
LINE
  5
11D86
330
11CD7
100
AcDbEntity
  8
HATCH_GASKET
390
11ED1
100
AcDbLine
 10
-26.3997784345987
 20
102.8064585566629
 30
0.0
 11
-26.10404562663199
 21
93.75632467124834
 31
0.0
  0
LWPOLYLINE
  5
11D87
330
11CD7
100
AcDbEntity
  8
PVC_OUTSIDE
390
11ED1
100
AcDbPolyline
 90
        8
 70
     1
 43
0.0
 10
-25.70008908903171
 20
104.0064585566627
 10
-25.70008908903171
 20
102.8064585566629
 10
-27.90008908903243
 20
102.8064585566629
 10
-27.90008908903243
 20
104.0064585566627
 10
-30.15008908903152
 20
104.0064585566627
 10
-30.15008908903062
 20
104.7564585566627
 10
-23.45008908903172
 20
104.7564585566627
 10
-23.45008908903262
 20
104.0064585566627
  0
LWPOLYLINE
  5
11D88
330
11CD7
100
AcDbEntity
  8
GASKET_OUTSIDE
390
11ED1
100
AcDbPolyline
 90
        4
 70
     1
 43
0.0
 10
-26.65649263072813
 20
102.8064585566629
 10
-26.55307919348675
 20
93.75632467124835
 10
-24.91914456313926
 20
93.75632467124835
 10
-25.74493782781967
 20
102.8064585566629
  0
LWPOLYLINE
  5
11D89
330
11CD7
100
AcDbEntity
  8
PVC_OUTSIDE
390
11ED1
100
AcDbPolyline
 90
        4
 70
     1
 43
0.0
 10
-26.87444612836449
 20
93.75632467124836
 10
-26.67455300689605
 20
93.75632467124836
 10
-26.67455300689605
 20
102.8064585566629
 10
-26.87444612836449
 20
102.8064585566629
  0
ENDBLK
  5
11D8A
330
11CD7
100
AcDbEntity
  8
PVC_INSIDE
 62
     0
390
11ED1
100
AcDbBlockEnd
  0
BLOCK
  5
11D8B
330
11CD8
100
AcDbEntity
  8
PVC_INSIDE
 62
     0
390
11ED1
100
AcDbBlockBegin
  2
PRJ_INSERT_16_384038226484
 70
     0
 10
416.5282432438194
 20
358.2078571816101
 30
0.0
  3
PRJ_INSERT_16_384038226484
  1
PRJ_INSERT_16_384038226484
  0
LWPOLYLINE
  5
11D8C
330
11CD8
100
AcDbEntity
  8
PVC_OUTSIDE
390
11ED1
100
AcDbPolyline
 90
        6
 70
     1
 43
0.0
 10
358.5282432438182
 20
358.207857181609
 10
358.0282332438171
 20
358.207857181609
 10
355.5283268899869
 20
358.207857181609
 10
355.5283268899869
 20
356.1077735354391
 10
357.5282432438173
 20
354.1078571816087
 10
358.5282432438182
 20
354.1078571816086
  0
LWPOLYLINE
  5
11D8D
330
11CD8
100
AcDbEntity
  8
PVC_OUTSIDE
390
11ED1
100
AcDbPolyline
 90
        5
 70
     1
 43
0.0
 10
405.2799432438173
 20
358.2078571816098
 10
402.5282432438195
 20
358.2078571816101
 10
402.5282432438201
 20
354.1078571816096
 10
403.0308460926111
 20
354.1078571816096
 10
405.4288473754842
 20
356.5058584644825
  0
LWPOLYLINE
  5
11D8E
330
11CD8
100
AcDbEntity
  8
PVC_OUTSIDE
390
11ED1
100
AcDbPolyline
 90
       11
 70
     1
 43
0.0
 10
402.5282432438194
 20
358.2078571816099
 10
358.5282432438182
 20
358.207857181609
 10
358.5282432438182
 20
354.1078571816087
 10
358.5282432438174
 20
351.4509405149433
 10
361.0282432438165
 20
351.9823238482765
 10
361.0282432438169
 20
354.1078571816111
 10
397.5282432438192
 20
354.1078571816091
 10
397.5282432438192
 20
355.7078571816101
 10
400.3282432438194
 20
355.7078571816101
 10
400.3282432438194
 20
354.1078571816096
 10
402.5282432438202
 20
354.1078571816096
  0
INSERT
  5
11D8F
330
11CD8
100
AcDbEntity
  8
ASSEMBLY
390
11ED1
100
AcDbBlockReference
  2
BASIS
 10
416.5282432438194
 20
358.2078571816101
 30
0.0
  0
ENDBLK
  5
11D90
330
11CD8
100
AcDbEntity
  8
PVC_INSIDE
 62
     0
390
11ED1
100
AcDbBlockEnd
  0
BLOCK
  5
11D91
330
11CD9
100
AcDbEntity
  8
PVC_INSIDE
 62
     0
390
11ED1
100
AcDbBlockBegin
  2
PRJ_INSERT_15_384038320614
 70
     0
 10
0.0
 20
-2.751171170227565
 30
0.0
  3
PRJ_INSERT_15_384038320614
  1
PRJ_INSERT_15_384038320614
  0
INSERT
  5
11D92
330
11CD9
100
AcDbEntity
  8
ASSEMBLY
390
11ED1
100
AcDbBlockReference
  2
BASIS
 10
0.0
 20
-2.751171170227565
 30
0.0
  0
LWPOLYLINE
  5
11D93
330
11CD9
100
AcDbEntity
  8
GASKET_OUTSIDE
390
11ED1
100
AcDbPolyline
 90
       39
 70
     1
 43
0.0
 10
3.352514634680205
 20
0.5585513326938099
 42
-0.2314397848705742
 10
3.470782265886882
 20
2.28833074734149
 42
0.1315348202000368
 10
3.497530933964839
 20
2.388250595155824
 10
3.497530933964839
 20
4.622876013632435
 42
0.5867168479146074
 10
2.738101330791181
 20
5.053323915952319
 42
0.0584058848642888
 10
0.0595012070745471
 20
2.964919371031726
 42
0.2006028375524573
 10
0.0000000000000002
 20
2.822581430950777
 10
0.0000000000000002
 20
-0.3798423372285242
 10
-0.6669082765056371
 20
-1.073621371827699
 10
-1.366979268645764
 20
-1.097059555810915
 42
-0.3888787318532526
 10
-1.581371967798077
 20
-0.9325502517261839
 10
-1.583942754625695
 20
-0.4392298092042211
 42
0.6068148963135956
 10
-1.753134208045594
 20
-0.3858839488524382
 10
-3.445029403525908
 20
-1.790068949300945
 42
0.2231100384418683
 10
-3.517300259193689
 20
-1.943969130224019
 10
-3.517300259193689
 20
-2.750049999999987
 10
-3.517300259193689
 20
-3.556130869775956
 42
0.2231100384418682
 10
-3.445029403525908
 20
-3.71003105069903
 10
-1.753134208045594
 20
-5.114216051147537
 42
0.6068148963135956
 10
-1.583942754625688
 20
-5.060870190795754
 10
-1.581371967798077
 20
-4.567549748273791
 42
-0.3888787318532527
 10
-1.366979268645764
 20
-4.40304044418906
 10
-0.6669082765056371
 20
-4.426478628172276
 10
0.0000000000000002
 20
-5.120257662771451
 10
0.0000000000000002
 20
-5.499057690215864
 42
0.4243179524408687
 10
0.3756677288075425
 20
-5.787067739374692
 10
0.6826997408066691
 20
-5.750049999999987
 42
0.3410460152546114
 10
0.9326997408066833
 20
-5.500049999999987
 10
0.9326997408066691
 20
-2.748728594397761
 42
-0.8344793942143851
 10
1.513475591358074
 20
-2.643064401091777
 10
2.412316609775274
 20
-5.031506914689743
 42
0.4480019744941906
 10
3.274068781171167
 20
-5.339677977198534
 42
0.2264937910121916
 10
3.497530933964853
 20
-4.981164922188185
 10
3.497530933964853
 20
-4.871676913824757
 42
0.252153011506675
 10
3.232774321562346
 20
-4.489552540957476
 10
2.803030257423501
 20
-2.946209341784083
 42
-0.4193308516125239
 10
2.846876799255014
 20
-2.460396128665138
 42
0.1397500251788683
 10
3.497530933964839
 20
-0.7336841193692862
 10
3.497530933964853
 20
-0.1779392439612479
 42
0.055935078153663
  0
LWPOLYLINE
  5
11D94
330
11CD9
100
AcDbEntity
  8
GASKET_INSIDE
390
11ED1
100
AcDbPolyline
 90
       16
 70
     1
 43
0.0
 10
2.319546115054521
 20
3.230859505610738
 42
0.2604509477739341
 10
2.199818049849085
 20
3.330662851006878
 42
0.2604509477739216
 10
2.052071537108162
 20
3.280999128604094
 42
0.0756588395781793
 10
1.772626646858129
 20
2.859925199341546
 42
0.0361121850790752
 10
1.575676843588653
 20
2.340917261116942
 42
0.0263032699044979
 10
1.396180871427163
 20
1.600701983451586
 42
0.0263032699044964
 10
1.29539588535917
 20
0.8457318861006797
 42
0.0361121850790684
 10
1.290997553306255
 20
0.2906290851493623
 42
0.0756588395781958
 10
1.398963588509645
 20
-0.2030672140402885
 42
0.2604509477740487
 10
1.518691653715081
 20
-0.3028705594364283
 42
0.260450947774118
 10
1.666438166456004
 20
-0.2532068370340994
 42
0.0756588395782123
 10
1.945883056706038
 20
0.1678670922284482
 42
0.0361121850790507
 10
2.142832859975528
 20
0.686875030453507
 42
0.0263032699045008
 10
2.322328832137003
 20
1.427090308118437
 42
0.0263032699044773
 10
2.423113818204996
 20
2.18206040546977
 42
0.0361121850790338
 10
2.427512150257911
 20
2.737163206420632
 42
0.0756588395782182
  0
LWPOLYLINE
  5
11D95
330
11CD9
100
AcDbEntity
  8
GASKET_INSIDE
390
11ED1
100
AcDbPolyline
 90
       18
 70
     1
 43
0.0
 10
-1.574477503883145
 20
-2.179375102809331
 10
-1.87009944265219
 20
-1.920574718573675
 42
0.2646867961947087
 10
-2.264405979403364
 20
-1.886553848598737
 10
-2.484571607791167
 20
-1.987910143518434
 42
0.2639114023249076
 10
-2.717300259193507
 20
-2.406256116302188
 10
-2.717300259193507
 20
-2.750049999999987
 10
-2.717300259193507
 20
-3.093843883698696
 42
0.2639114023249074
 10
-2.484571607791167
 20
-3.512189856482451
 10
-2.26440597940335
 20
-3.613546151401721
 42
0.2646867961947085
 10
-1.87009944265219
 20
-3.579525281426754
 10
-1.57447750388269
 20
-3.37572489719139
 42
-0.1393244917277047
 10
-1.347442315729495
 20
-3.250049999999987
 10
-0.767300259193689
 20
-3.250049999999987
 42
0.4142135623730951
 10
-0.517300259193689
 20
-3.000049999999987
 10
-0.517300259193689
 20
-2.750049999999987
 10
-0.517300259193689
 20
-2.500049999999987
 42
0.4142135623731002
 10
-0.767300259193689
 20
-2.250049999999987
 10
-1.347442315729495
 20
-2.250049999999987
 42
-0.1520490520990107
  0
ENDBLK
  5
11D96
330
11CD9
100
AcDbEntity
  8
PVC_INSIDE
 62
     0
390
11ED1
100
AcDbBlockEnd
  0
BLOCK
  5
11D97
330
11CDA
100
AcDbEntity
  8
PVC_INSIDE
 62
     0
390
11ED1
100
AcDbBlockBegin
  2
PRJ_INSERT_14_384038323431
 70
     0
 10
229.9673586814986
 20
133.4638089813834
 30
0.0
  3
PRJ_INSERT_14_384038323431
  1
PRJ_INSERT_14_384038323431
  0
INSERT
  5
11D98
330
11CDA
100
AcDbEntity
  8
ASSEMBLY
390
11ED1
100
AcDbBlockReference
  2
BASIS
 10
229.9673586814986
 20
133.4638089813834
 30
0.0
  0
LWPOLYLINE
  5
11D99
330
11CDA
100
AcDbEntity
  8
STEEL_INSIDE
390
11ED1
100
AcDbPolyline
 90
        8
 70
     1
 43
0.0
 10
250.9673726660917
 20
130.9638089813834
 42
0.4142135623730947
 10
250.4673726660917
 20
131.4638089813834
 10
209.4673446969055
 20
131.4638089813834
 42
0.4142135623730952
 10
208.9673446969055
 20
130.9638089813834
 10
208.967344696905
 20
75.96380898138345
 42
0.4142135623730947
 10
209.467344696905
 20
75.46380898138345
 10
250.4673726660907
 20
75.4638089813834
 42
0.4142135623730867
 10
250.9673726660907
 20
75.96380898138338
  0
LWPOLYLINE
  5
11D9B
330
11CDA
100
AcDbEntity
  8
STEEL_OUTSIDE
390
11ED1
100
AcDbPolyline
 90
        8
 70
     1
 43
0.0
 10
252.9673726660917
 20
130.9638089813833
 42
0.4142135623731014
 10
250.4673726660917
 20
133.4638089813834
 10
209.4673446969054
 20
133.4638089813834
 42
0.4142135623730917
 10
206.9673446969054
 20
130.9638089813834
 10
206.967344696905
 20
75.96380898138341
 42
0.4142135623730964
 10
209.467344696905
 20
73.4638089813834
 10
250.4673726660907
 20
73.46380898138334
 42
0.4142135623730901
 10
252.9673726660907
 20
75.9638089813833
  0
HATCH
  5
11D9D
330
11CDA
100
AcDbEntity
  8
HATCH_STEEL
390
11ED1
100
AcDbHatch
 10
0.0
 20
0.0
 30
0.0
210
0.0
220
0.0
230
1.0
  2
ANSI31
 70
     0
 71
     0
 91
        2
 92
        7
 72
     1
 73
     1
 93
        8
 10
250.4673726660917
 20
133.4638089813834
 42
0.0
 10
209.4673446969054
 20
133.4638089813834
 42
0.4142135623730917
 10
206.9673446969054
 20
130.9638089813834
 42
0.0
 10
206.967344696905
 20
75.96380898138341
 42
0.4142135623730964
 10
209.467344696905
 20
73.4638089813834
 42
0.0
 10
250.4673726660907
 20
73.46380898138334
 42
0.4142135623730901
 10
252.9673726660907
 20
75.9638089813833
 42
0.0
 10
252.9673726660917
 20
130.9638089813833
 42
0.4142135623731014
 97
        0
 92
       22
 72
     1
 73
     1
 93
        8
 10
250.4673726660917
 20
131.4638089813834
 42
-0.4142135623730947
 10
250.9673726660917
 20
130.9638089813834
 42
0.0
 10
250.9673726660907
 20
75.96380898138338
 42
-0.4142135623730866
 10
250.4673726660907
 20
75.4638089813834
 42
0.0
 10
209.467344696905
 20
75.46380898138345
 42
-0.4142135623730947
 10
208.967344696905
 20
75.96380898138345
 42
0.0
 10
208.9673446969055
 20
130.9638089813834
 42
-0.4142135623730952
 10
209.4673446969055
 20
131.4638089813834
 42
0.0
 97
        0
 75
     0
 76
     1
 52
0.0
 41
15.0
 77
     0
 78
     1
 53
45.0
 43
0.0
 44
0.0
 45
-1.325825214724776
 46
1.325825214724777
 79
     0
 47
0.154232034745402
 98
        2
 10
239.3195074941064
 20
132.349213000938
 10
239.3195074941064
 20
132.349213000938
  0
ENDBLK
  5
11D9F
330
11CDA
100
AcDbEntity
  8
PVC_INSIDE
 62
     0
390
11ED1
100
AcDbBlockEnd
  0
BLOCK
  5
11DA0
330
11CDB
100
AcDbEntity
  8
0
390
11ED1
100
AcDbBlockBegin
  2
GLAS
 70
     0
 10
0.0
 20
0.0
 30
0.0
  3
GLAS
  1
GLAS
  0
LINE
  5
11DA1
330
11CDB
100
AcDbEntity
  8
ASSEMBLY
 62
     1
390
11ED1
100
AcDbLine
 10
0.0
 20
0.0
 30
0.0
 11
3.0
 21
0.0
 31
0.0
  0
LINE
  5
11DA2
330
11CDB
100
AcDbEntity
  8
ASSEMBLY
 62
     3
390
11ED1
100
AcDbLine
 10
0.0
 20
0.0
 30
0.0
 11
0.0
 21
2.998156985077132
 31
0.0
  0
TEXT
  5
11DA3
330
11CDB
100
AcDbEntity
  8
ASSEMBLY
390
11ED1
100
AcDbText
 10
0.45
 20
1.17
 30
0.0
 40
0.6
  1
GLAS
100
AcDbText
  0
ENDBLK
  5
11DA4
330
11CDB
100
AcDbEntity
  8
0
390
11ED1
100
AcDbBlockEnd
  0
BLOCK
  5
11DA5
330
11CDC
100
AcDbEntity
  8
0
390
11ED1
100
AcDbBlockBegin
  2
DIM_GLASLEISTE_OBEN
 70
     0
 10
0.0
 20
0.0
 30
0.0
  3
DIM_GLASLEISTE_OBEN
  1
DIM_GLASLEISTE_OBEN
  0
LINE
  5
11DA6
330
11CDC
100
AcDbEntity
  8
ASSEMBLY
 62
     1
390
11ED1
100
AcDbLine
 10
0.0
 20
0.0
 30
0.0
 11
3.0
 21
0.0
 31
0.0
  0
LINE
  5
11DA7
330
11CDC
100
AcDbEntity
  8
ASSEMBLY
 62
     3
390
11ED1
100
AcDbLine
 10
0.0
 20
0.0
 30
0.0
 11
0.0
 21
2.998156985077132
 31
0.0
  0
TEXT
  5
11DA8
330
11CDC
100
AcDbEntity
  8
ASSEMBLY
390
11ED1
100
AcDbText
 10
0.45
 20
1.17
 30
0.0
 40
0.6
  1
DIM_GLASLEISTE_OBEN
100
AcDbText
  0
ENDBLK
  5
11DA9
330
11CDC
100
AcDbEntity
  8
0
390
11ED1
100
AcDbBlockEnd
  0
BLOCK
  5
11DAA
330
11CDE
100
AcDbEntity
  8
0
390
11ED1
100
AcDbBlockBegin
  2
DIM_GLASLEISTE_UNTEN
 70
     0
 10
0.0
 20
0.0
 30
0.0
  3
DIM_GLASLEISTE_UNTEN
  1
DIM_GLASLEISTE_UNTEN
  0
LINE
  5
11DAB
330
11CDE
100
AcDbEntity
  8
ASSEMBLY
 62
     1
390
11ED1
100
AcDbLine
 10
0.0
 20
0.0
 30
0.0
 11
3.0
 21
0.0
 31
0.0
  0
LINE
  5
11DAC
330
11CDE
100
AcDbEntity
  8
ASSEMBLY
 62
     3
390
11ED1
100
AcDbLine
 10
0.0
 20
0.0
 30
0.0
 11
0.0
 21
2.998156985077131
 31
0.0
  0
TEXT
  5
11DAD
330
11CDE
100
AcDbEntity
  8
ASSEMBLY
390
11ED1
100
AcDbText
 10
0.4499999999999886
 20
1.170000000000002
 30
0.0
 40
0.6
  1
DIM_GLASLEISTE_UNTEN
100
AcDbText
  0
ENDBLK
  5
11DAE
330
11CDE
100
AcDbEntity
  8
0
390
11ED1
100
AcDbBlockEnd
  0
BLOCK
  5
11DAF
330
11CDF
100
AcDbEntity
  8
0
 62
     0
390
11ED1
100
AcDbBlockBegin
  2
PRJ_INSERT_13_384038323999
 70
     0
 10
0.0
 20
-5.0
 30
0.0
  3
PRJ_INSERT_13_384038323999
  1
PRJ_INSERT_13_384038323999
  0
POLYLINE
  5
11DB0
330
11CDF
100
AcDbEntity
  8
GLAS_G4
 62
     7
390
11ED1
100
AcDb2dPolyline
 66
     1
 10
0.0
 20
0.0
 30
0.0
 70
     1
  0
VERTEX
  5
11DB1
330
11DB0
100
AcDbEntity
  8
GLAS_G4
 62
     7
390
11ED1
100
AcDbVertex
100
AcDb2dVertex
 10
0.0
 20
0.0
 30
0.0
  0
VERTEX
  5
11DB2
330
11DB0
100
AcDbEntity
  8
GLAS_G4
 62
     7
390
11ED1
100
AcDbVertex
100
AcDb2dVertex
 10
0.0
 20
60.0
 30
0.0
  0
VERTEX
  5
11DB3
330
11DB0
100
AcDbEntity
  8
GLAS_G4
 62
     7
390
11ED1
100
AcDbVertex
100
AcDb2dVertex
 10
-6.0
 20
60.0
 30
0.0
  0
VERTEX
  5
11DB4
330
11DB0
100
AcDbEntity
  8
GLAS_G4
 62
     7
390
11ED1
100
AcDbVertex
100
AcDb2dVertex
 10
-6.0
 20
0.0
 30
0.0
  0
SEQEND
  5
11DB5
330
11DB0
100
AcDbEntity
  8
GLAS_G4
 62
     7
390
11ED1
  0
LINE
  5
11DB7
330
11CDF
100
AcDbEntity
  8
HATCH_GLAS
  6
Continuous
 62
     7
390
11ED1
100
AcDbLine
 10
-1.0
 20
0.0
 30
0.0
 11
-1.0
 21
60.0
 31
0.0
  0
LINE
  5
11DB9
330
11CDF
100
AcDbEntity
  8
HATCH_GLAS
  6
Continuous
 62
     7
390
11ED1
100
AcDbLine
 10
-2.0
 20
0.0
 30
0.0
 11
-2.0
 21
60.0
 31
0.0
  0
LINE
  5
11DBA
330
11CDF
100
AcDbEntity
  8
HATCH_GLAS
  6
Continuous
 62
     7
390
11ED1
100
AcDbLine
 10
-3.0
 20
0.0
 30
0.0
 11
-3.0
 21
60.0
 31
0.0
  0
LINE
  5
11DBB
330
11CDF
100
AcDbEntity
  8
HATCH_GLAS
  6
Continuous
 62
     7
390
11ED1
100
AcDbLine
 10
-4.0
 20
0.0
 30
0.0
 11
-4.0
 21
60.0
 31
0.0
  0
LINE
  5
11DBC
330
11CDF
100
AcDbEntity
  8
HATCH_GLAS
  6
Continuous
 62
     7
390
11ED1
100
AcDbLine
 10
-5.0
 20
0.0
 30
0.0
 11
-5.0
 21
60.0
 31
0.0
  0
POLYLINE
  5
11DBD
330
11CDF
100
AcDbEntity
  8
GLAS_G2
 62
     7
390
11ED1
100
AcDb2dPolyline
 66
     1
 10
0.0
 20
0.0
 30
0.0
 70
     1
  0
VERTEX
  5
11DBE
330
11DBD
100
AcDbEntity
  8
GLAS_G2
 62
     7
390
11ED1
100
AcDbVertex
100
AcDb2dVertex
 10
-20.0
 20
0.0
 30
0.0
  0
VERTEX
  5
11DBF
330
11DBD
100
AcDbEntity
  8
GLAS_G2
 62
     7
390
11ED1
100
AcDbVertex
100
AcDb2dVertex
 10
-20.0
 20
60.0
 30
0.0
  0
VERTEX
  5
11DC0
330
11DBD
100
AcDbEntity
  8
GLAS_G2
 62
     7
390
11ED1
100
AcDbVertex
100
AcDb2dVertex
 10
-24.0
 20
60.0
 30
0.0
  0
VERTEX
  5
11DC1
330
11DBD
100
AcDbEntity
  8
GLAS_G2
 62
     7
390
11ED1
100
AcDbVertex
100
AcDb2dVertex
 10
-24.0
 20
0.0
 30
0.0
  0
SEQEND
  5
11DC2
330
11DBD
100
AcDbEntity
  8
GLAS_G2
 62
     7
390
11ED1
  0
LINE
  5
11DC4
330
11CDF
100
AcDbEntity
  8
HATCH_GLAS
  6
Continuous
 62
     7
390
11ED1
100
AcDbLine
 10
-21.0
 20
0.0
 30
0.0
 11
-21.0
 21
60.0
 31
0.0
  0
LINE
  5
11DC5
330
11CDF
100
AcDbEntity
  8
HATCH_GLAS
  6
Continuous
 62
     7
390
11ED1
100
AcDbLine
 10
-22.0
 20
0.0
 30
0.0
 11
-22.0
 21
60.0
 31
0.0
  0
LINE
  5
11DC6
330
11CDF
100
AcDbEntity
  8
HATCH_GLAS
  6
Continuous
 62
     7
390
11ED1
100
AcDbLine
 10
-23.0
 20
0.0
 30
0.0
 11
-23.0
 21
60.0
 31
0.0
  0
POLYLINE
  5
11DC7
330
11CDF
100
AcDbEntity
  8
GLAS_G0
 62
     7
390
11ED1
100
AcDb2dPolyline
 66
     1
 10
0.0
 20
0.0
 30
0.0
 70
     1
  0
VERTEX
  5
11DC8
330
11DC7
100
AcDbEntity
  8
GLAS_G0
 62
     7
390
11ED1
100
AcDbVertex
100
AcDb2dVertex
 10
-38.0
 20
0.0
 30
0.0
  0
VERTEX
  5
11DC9
330
11DC7
100
AcDbEntity
  8
GLAS_G0
 62
     7
390
11ED1
100
AcDbVertex
100
AcDb2dVertex
 10
-38.0
 20
60.0
 30
0.0
  0
VERTEX
  5
11DCA
330
11DC7
100
AcDbEntity
  8
GLAS_G0
 62
     7
390
11ED1
100
AcDbVertex
100
AcDb2dVertex
 10
-46.0
 20
60.0
 30
0.0
  0
VERTEX
  5
11DCB
330
11DC7
100
AcDbEntity
  8
GLAS_G0
 62
     7
390
11ED1
100
AcDbVertex
100
AcDb2dVertex
 10
-46.0
 20
0.0
 30
0.0
  0
SEQEND
  5
11DCC
330
11DC7
100
AcDbEntity
  8
GLAS_G0
 62
     7
390
11ED1
  0
LINE
  5
11DCE
330
11CDF
100
AcDbEntity
  8
HATCH_GLAS
  6
Continuous
 62
     7
390
11ED1
100
AcDbLine
 10
-39.0
 20
0.0
 30
0.0
 11
-39.0
 21
60.0
 31
0.0
  0
LINE
  5
11DCF
330
11CDF
100
AcDbEntity
  8
HATCH_GLAS
  6
Continuous
 62
     7
390
11ED1
100
AcDbLine
 10
-40.0
 20
0.0
 30
0.0
 11
-40.0
 21
60.0
 31
0.0
  0
LINE
  5
11DD0
330
11CDF
100
AcDbEntity
  8
HATCH_GLAS
  6
Continuous
 62
     7
390
11ED1
100
AcDbLine
 10
-41.0
 20
0.0
 30
0.0
 11
-41.0
 21
60.0
 31
0.0
  0
LINE
  5
11DD1
330
11CDF
100
AcDbEntity
  8
HATCH_GLAS
  6
Continuous
 62
     7
390
11ED1
100
AcDbLine
 10
-42.0
 20
0.0
 30
0.0
 11
-42.0
 21
60.0
 31
0.0
  0
LINE
  5
11DD2
330
11CDF
100
AcDbEntity
  8
HATCH_GLAS
  6
Continuous
 62
     7
390
11ED1
100
AcDbLine
 10
-43.0
 20
0.0
 30
0.0
 11
-43.0
 21
60.0
 31
0.0
  0
LINE
  5
11DD3
330
11CDF
100
AcDbEntity
  8
HATCH_GLAS
  6
Continuous
 62
     7
390
11ED1
100
AcDbLine
 10
-44.0
 20
0.0
 30
0.0
 11
-44.0
 21
60.0
 31
0.0
  0
LINE
  5
11DD4
330
11CDF
100
AcDbEntity
  8
HATCH_GLAS
  6
Continuous
 62
     7
390
11ED1
100
AcDbLine
 10
-45.0
 20
0.0
 30
0.0
 11
-45.0
 21
60.0
 31
0.0
  0
POLYLINE
  5
11DD5
330
11CDF
100
AcDbEntity
  8
GLASDISTANCER_WARM
 62
     7
390
11ED1
100
AcDb2dPolyline
 66
     1
 10
0.0
 20
0.0
 30
0.0
 70
     1
  0
VERTEX
  5
11DD6
330
11DD5
100
AcDbEntity
  8
GLASDISTANCER_WARM
 62
     7
390
11ED1
100
AcDbVertex
100
AcDb2dVertex
 10
-20.0
 20
13.2
 30
0.0
  0
VERTEX
  5
11DD7
330
11DD5
100
AcDbEntity
  8
GLASDISTANCER_WARM
 62
     7
390
11ED1
100
AcDbVertex
100
AcDb2dVertex
 10
-13.14
 20
13.2
 30
0.0
  0
VERTEX
  5
11DD8
330
11DD5
100
AcDbEntity
  8
GLASDISTANCER_WARM
 62
     7
390
11ED1
100
AcDbVertex
100
AcDb2dVertex
 10
-13.0
 20
13.1
 30
0.0
  0
VERTEX
  5
11DD9
330
11DD5
100
AcDbEntity
  8
GLASDISTANCER_WARM
 62
     7
390
11ED1
100
AcDbVertex
100
AcDb2dVertex
 10
-12.86
 20
13.2
 30
0.0
  0
VERTEX
  5
11DDA
330
11DD5
100
AcDbEntity
  8
GLASDISTANCER_WARM
 62
     7
390
11ED1
100
AcDbVertex
100
AcDb2dVertex
 10
-6.0
 20
13.2
 30
0.0
  0
VERTEX
  5
11DDB
330
11DD5
100
AcDbEntity
  8
GLASDISTANCER_WARM
 62
     7
390
11ED1
100
AcDbVertex
100
AcDb2dVertex
 10
-6.0
 20
6.4
 30
0.0
  0
VERTEX
  5
11DDC
330
11DD5
100
AcDbEntity
  8
GLASDISTANCER_WARM
 62
     7
390
11ED1
100
AcDbVertex
100
AcDb2dVertex
 10
-9.0
 20
3.4
 30
0.0
  0
VERTEX
  5
11DDD
330
11DD5
100
AcDbEntity
  8
GLASDISTANCER_WARM
 62
     7
390
11ED1
100
AcDbVertex
100
AcDb2dVertex
 10
-17.0
 20
3.4
 30
0.0
  0
VERTEX
  5
11DDE
330
11DD5
100
AcDbEntity
  8
GLASDISTANCER_WARM
 62
     7
390
11ED1
100
AcDbVertex
100
AcDb2dVertex
 10
-20.0
 20
6.4
 30
0.0
  0
SEQEND
  5
11DDF
330
11DD5
100
AcDbEntity
  8
GLASDISTANCER_WARM
 62
     7
390
11ED1
  0
POLYLINE
  5
11DE1
330
11CDF
100
AcDbEntity
  8
GLASDISTANCER_INSIDE
 62
     7
390
11ED1
100
AcDb2dPolyline
 66
     1
 10
0.0
 20
0.0
 30
0.0
 70
     1
  0
VERTEX
  5
11DE2
330
11DE1
100
AcDbEntity
  8
GLASDISTANCER_INSIDE
 62
     7
390
11ED1
100
AcDbVertex
100
AcDb2dVertex
 10
-7.2
 20
12.0
 30
0.0
  0
VERTEX
  5
11DE3
330
11DE1
100
AcDbEntity
  8
GLASDISTANCER_INSIDE
 62
     7
390
11ED1
100
AcDbVertex
100
AcDb2dVertex
 10
-7.2
 20
6.897056274847714
 30
0.0
  0
VERTEX
  5
11DE4
330
11DE1
100
AcDbEntity
  8
GLASDISTANCER_INSIDE
 62
     7
390
11ED1
100
AcDbVertex
100
AcDb2dVertex
 10
-9.497056274847715
 20
4.6
 30
0.0
  0
VERTEX
  5
11DE5
330
11DE1
100
AcDbEntity
  8
GLASDISTANCER_INSIDE
 62
     7
390
11ED1
100
AcDbVertex
100
AcDb2dVertex
 10
-16.50294372515229
 20
4.6
 30
0.0
  0
VERTEX
  5
11DE6
330
11DE1
100
AcDbEntity
  8
GLASDISTANCER_INSIDE
 62
     7
390
11ED1
100
AcDbVertex
100
AcDb2dVertex
 10
-18.8
 20
6.897056274847714
 30
0.0
  0
VERTEX
  5
11DE7
330
11DE1
100
AcDbEntity
  8
GLASDISTANCER_INSIDE
 62
     7
390
11ED1
100
AcDbVertex
100
AcDb2dVertex
 10
-18.8
 20
12.0
 30
0.0
  0
SEQEND
  5
11DE8
330
11DE1
100
AcDbEntity
  8
GLASDISTANCER_INSIDE
 62
     7
390
11ED1
  0
POLYLINE
  5
11DEA
330
11CDF
100
AcDbEntity
  8
GLAS_GASKET_WARM
 62
     7
390
11ED1
100
AcDb2dPolyline
 66
     1
 10
0.0
 20
0.0
 30
0.0
 70
     1
  0
VERTEX
  5
11DEB
330
11DEA
100
AcDbEntity
  8
GLAS_GASKET_WARM
 62
     7
390
11ED1
100
AcDbVertex
100
AcDb2dVertex
 10
-6.0
 20
6.4
 30
0.0
  0
VERTEX
  5
11DEC
330
11DEA
100
AcDbEntity
  8
GLAS_GASKET_WARM
 62
     7
390
11ED1
100
AcDbVertex
100
AcDb2dVertex
 10
-9.0
 20
3.4
 30
0.0
  0
VERTEX
  5
11DED
330
11DEA
100
AcDbEntity
  8
GLAS_GASKET_WARM
 62
     7
390
11ED1
100
AcDbVertex
100
AcDb2dVertex
 10
-17.0
 20
3.4
 30
0.0
  0
VERTEX
  5
11DEE
330
11DEA
100
AcDbEntity
  8
GLAS_GASKET_WARM
 62
     7
390
11ED1
100
AcDbVertex
100
AcDb2dVertex
 10
-20.0
 20
6.4
 30
0.0
  0
VERTEX
  5
11DEF
330
11DEA
100
AcDbEntity
  8
GLAS_GASKET_WARM
 62
     7
390
11ED1
100
AcDbVertex
100
AcDb2dVertex
 10
-20.0
 20
0.0
 30
0.0
  0
VERTEX
  5
11DF0
330
11DEA
100
AcDbEntity
  8
GLAS_GASKET_WARM
 62
     7
390
11ED1
100
AcDbVertex
100
AcDb2dVertex
 10
-6.0
 20
0.0
 30
0.0
  0
SEQEND
  5
11DF1
330
11DEA
100
AcDbEntity
  8
GLAS_GASKET_WARM
 62
     7
390
11ED1
  0
POLYLINE
  5
11DF3
330
11CDF
100
AcDbEntity
  8
GLAS_L3
 62
     7
390
11ED1
100
AcDb2dPolyline
 66
     1
 10
0.0
 20
0.0
 30
0.0
 70
     1
  0
VERTEX
  5
11DF4
330
11DF3
100
AcDbEntity
  8
GLAS_L3
 62
     7
390
11ED1
100
AcDbVertex
100
AcDb2dVertex
 10
-20.0
 20
13.2
 30
0.0
  0
VERTEX
  5
11DF5
330
11DF3
100
AcDbEntity
  8
GLAS_L3
 62
     7
390
11ED1
100
AcDbVertex
100
AcDb2dVertex
 10
-13.14
 20
13.2
 30
0.0
  0
VERTEX
  5
11DF6
330
11DF3
100
AcDbEntity
  8
GLAS_L3
 62
     7
390
11ED1
100
AcDbVertex
100
AcDb2dVertex
 10
-13.0
 20
13.1
 30
0.0
  0
VERTEX
  5
11DF7
330
11DF3
100
AcDbEntity
  8
GLAS_L3
 62
     7
390
11ED1
100
AcDbVertex
100
AcDb2dVertex
 10
-12.86
 20
13.2
 30
0.0
  0
VERTEX
  5
11DF8
330
11DF3
100
AcDbEntity
  8
GLAS_L3
 62
     7
390
11ED1
100
AcDbVertex
100
AcDb2dVertex
 10
-6.0
 20
13.2
 30
0.0
  0
VERTEX
  5
11DF9
330
11DF3
100
AcDbEntity
  8
GLAS_L3
 62
     7
390
11ED1
100
AcDbVertex
100
AcDb2dVertex
 10
-6.0
 20
60.0
 30
0.0
  0
VERTEX
  5
11DFA
330
11DF3
100
AcDbEntity
  8
GLAS_L3
 62
     7
390
11ED1
100
AcDbVertex
100
AcDb2dVertex
 10
-20.0
 20
60.0
 30
0.0
  0
SEQEND
  5
11DFB
330
11DF3
100
AcDbEntity
  8
GLAS_L3
 62
     7
390
11ED1
  0
POLYLINE
  5
11DFD
330
11CDF
100
AcDbEntity
  8
GLASDISTANCER_WARM
 62
     7
390
11ED1
100
AcDb2dPolyline
 66
     1
 10
0.0
 20
0.0
 30
0.0
 70
     1
  0
VERTEX
  5
11DFE
330
11DFD
100
AcDbEntity
  8
GLASDISTANCER_WARM
 62
     7
390
11ED1
100
AcDbVertex
100
AcDb2dVertex
 10
-38.0
 20
13.2
 30
0.0
  0
VERTEX
  5
11DFF
330
11DFD
100
AcDbEntity
  8
GLASDISTANCER_WARM
 62
     7
390
11ED1
100
AcDbVertex
100
AcDb2dVertex
 10
-31.14
 20
13.2
 30
0.0
  0
VERTEX
  5
11E00
330
11DFD
100
AcDbEntity
  8
GLASDISTANCER_WARM
 62
     7
390
11ED1
100
AcDbVertex
100
AcDb2dVertex
 10
-31.0
 20
13.1
 30
0.0
  0
VERTEX
  5
11E01
330
11DFD
100
AcDbEntity
  8
GLASDISTANCER_WARM
 62
     7
390
11ED1
100
AcDbVertex
100
AcDb2dVertex
 10
-30.86
 20
13.2
 30
0.0
  0
VERTEX
  5
11E02
330
11DFD
100
AcDbEntity
  8
GLASDISTANCER_WARM
 62
     7
390
11ED1
100
AcDbVertex
100
AcDb2dVertex
 10
-24.0
 20
13.2
 30
0.0
  0
VERTEX
  5
11E03
330
11DFD
100
AcDbEntity
  8
GLASDISTANCER_WARM
 62
     7
390
11ED1
100
AcDbVertex
100
AcDb2dVertex
 10
-24.0
 20
6.4
 30
0.0
  0
VERTEX
  5
11E04
330
11DFD
100
AcDbEntity
  8
GLASDISTANCER_WARM
 62
     7
390
11ED1
100
AcDbVertex
100
AcDb2dVertex
 10
-27.0
 20
3.4
 30
0.0
  0
VERTEX
  5
11E05
330
11DFD
100
AcDbEntity
  8
GLASDISTANCER_WARM
 62
     7
390
11ED1
100
AcDbVertex
100
AcDb2dVertex
 10
-35.0
 20
3.4
 30
0.0
  0
VERTEX
  5
11E06
330
11DFD
100
AcDbEntity
  8
GLASDISTANCER_WARM
 62
     7
390
11ED1
100
AcDbVertex
100
AcDb2dVertex
 10
-38.0
 20
6.4
 30
0.0
  0
SEQEND
  5
11E07
330
11DFD
100
AcDbEntity
  8
GLASDISTANCER_WARM
 62
     7
390
11ED1
  0
POLYLINE
  5
11E08
330
11CDF
100
AcDbEntity
  8
GLASDISTANCER_INSIDE
 62
     7
390
11ED1
100
AcDb2dPolyline
 66
     1
 10
0.0
 20
0.0
 30
0.0
 70
     1
  0
VERTEX
  5
11E09
330
11E08
100
AcDbEntity
  8
GLASDISTANCER_INSIDE
 62
     7
390
11ED1
100
AcDbVertex
100
AcDb2dVertex
 10
-25.2
 20
12.0
 30
0.0
  0
VERTEX
  5
11E0A
330
11E08
100
AcDbEntity
  8
GLASDISTANCER_INSIDE
 62
     7
390
11ED1
100
AcDbVertex
100
AcDb2dVertex
 10
-25.2
 20
6.897056274847714
 30
0.0
  0
VERTEX
  5
11E0B
330
11E08
100
AcDbEntity
  8
GLASDISTANCER_INSIDE
 62
     7
390
11ED1
100
AcDbVertex
100
AcDb2dVertex
 10
-27.49705627484771
 20
4.6
 30
0.0
  0
VERTEX
  5
11E0C
330
11E08
100
AcDbEntity
  8
GLASDISTANCER_INSIDE
 62
     7
390
11ED1
100
AcDbVertex
100
AcDb2dVertex
 10
-34.50294372515229
 20
4.6
 30
0.0
  0
VERTEX
  5
11E0D
330
11E08
100
AcDbEntity
  8
GLASDISTANCER_INSIDE
 62
     7
390
11ED1
100
AcDbVertex
100
AcDb2dVertex
 10
-36.8
 20
6.897056274847714
 30
0.0
  0
VERTEX
  5
11E0E
330
11E08
100
AcDbEntity
  8
GLASDISTANCER_INSIDE
 62
     7
390
11ED1
100
AcDbVertex
100
AcDb2dVertex
 10
-36.8
 20
12.0
 30
0.0
  0
SEQEND
  5
11E0F
330
11E08
100
AcDbEntity
  8
GLASDISTANCER_INSIDE
 62
     7
390
11ED1
  0
POLYLINE
  5
11E10
330
11CDF
100
AcDbEntity
  8
GLAS_GASKET_WARM
 62
     7
390
11ED1
100
AcDb2dPolyline
 66
     1
 10
0.0
 20
0.0
 30
0.0
 70
     1
  0
VERTEX
  5
11E11
330
11E10
100
AcDbEntity
  8
GLAS_GASKET_WARM
 62
     7
390
11ED1
100
AcDbVertex
100
AcDb2dVertex
 10
-24.0
 20
6.4
 30
0.0
  0
VERTEX
  5
11E12
330
11E10
100
AcDbEntity
  8
GLAS_GASKET_WARM
 62
     7
390
11ED1
100
AcDbVertex
100
AcDb2dVertex
 10
-27.0
 20
3.4
 30
0.0
  0
VERTEX
  5
11E13
330
11E10
100
AcDbEntity
  8
GLAS_GASKET_WARM
 62
     7
390
11ED1
100
AcDbVertex
100
AcDb2dVertex
 10
-35.0
 20
3.4
 30
0.0
  0
VERTEX
  5
11E14
330
11E10
100
AcDbEntity
  8
GLAS_GASKET_WARM
 62
     7
390
11ED1
100
AcDbVertex
100
AcDb2dVertex
 10
-38.0
 20
6.4
 30
0.0
  0
VERTEX
  5
11E15
330
11E10
100
AcDbEntity
  8
GLAS_GASKET_WARM
 62
     7
390
11ED1
100
AcDbVertex
100
AcDb2dVertex
 10
-38.0
 20
0.0
 30
0.0
  0
VERTEX
  5
11E16
330
11E10
100
AcDbEntity
  8
GLAS_GASKET_WARM
 62
     7
390
11ED1
100
AcDbVertex
100
AcDb2dVertex
 10
-24.0
 20
0.0
 30
0.0
  0
SEQEND
  5
11E17
330
11E10
100
AcDbEntity
  8
GLAS_GASKET_WARM
 62
     7
390
11ED1
  0
POLYLINE
  5
11E18
330
11CDF
100
AcDbEntity
  8
GLAS_L1
 62
     7
390
11ED1
100
AcDb2dPolyline
 66
     1
 10
0.0
 20
0.0
 30
0.0
 70
     1
  0
VERTEX
  5
11E19
330
11E18
100
AcDbEntity
  8
GLAS_L1
 62
     7
390
11ED1
100
AcDbVertex
100
AcDb2dVertex
 10
-38.0
 20
13.2
 30
0.0
  0
VERTEX
  5
11E1A
330
11E18
100
AcDbEntity
  8
GLAS_L1
 62
     7
390
11ED1
100
AcDbVertex
100
AcDb2dVertex
 10
-31.14
 20
13.2
 30
0.0
  0
VERTEX
  5
11E1B
330
11E18
100
AcDbEntity
  8
GLAS_L1
 62
     7
390
11ED1
100
AcDbVertex
100
AcDb2dVertex
 10
-31.0
 20
13.1
 30
0.0
  0
VERTEX
  5
11E1C
330
11E18
100
AcDbEntity
  8
GLAS_L1
 62
     7
390
11ED1
100
AcDbVertex
100
AcDb2dVertex
 10
-30.86
 20
13.2
 30
0.0
  0
VERTEX
  5
11E1D
330
11E18
100
AcDbEntity
  8
GLAS_L1
 62
     7
390
11ED1
100
AcDbVertex
100
AcDb2dVertex
 10
-24.0
 20
13.2
 30
0.0
  0
VERTEX
  5
11E1E
330
11E18
100
AcDbEntity
  8
GLAS_L1
 62
     7
390
11ED1
100
AcDbVertex
100
AcDb2dVertex
 10
-24.0
 20
60.0
 30
0.0
  0
VERTEX
  5
11E1F
330
11E18
100
AcDbEntity
  8
GLAS_L1
 62
     7
390
11ED1
100
AcDbVertex
100
AcDb2dVertex
 10
-38.0
 20
60.0
 30
0.0
  0
SEQEND
  5
11E20
330
11E18
100
AcDbEntity
  8
GLAS_L1
 62
     7
390
11ED1
  0
POINT
  5
11E22
330
11CDF
100
AcDbEntity
  8
ASSEMBLY
  6
Continuous
 62
   121
390
11ED1
100
AcDbPoint
 10
10.0
 20
30.0
 30
0.0
  0
POINT
  5
11E23
330
11CDF
100
AcDbEntity
  8
ASSEMBLY
  6
Continuous
 62
   120
390
11ED1
100
AcDbPoint
 10
-56.0
 20
30.0
 30
0.0
  0
POINT
  5
11E24
330
11CDF
100
AcDbEntity
  8
ASSEMBLY
  6
Continuous
 62
    53
390
11ED1
100
AcDbPoint
 10
0.0
 20
60.0
 30
0.0
  0
POINT
  5
11E25
330
11CDF
100
AcDbEntity
  8
ASSEMBLY
  6
Continuous
 62
    54
390
11ED1
100
AcDbPoint
 10
0.0
 20
0.0
 30
0.0
  0
INSERT
  5
11E26
330
11CDF
100
AcDbEntity
  8
0
 62
     1
390
11ED1
100
AcDbBlockReference
  2
BASIS
 10
0.0
 20
-5.0
 30
0.0
  0
POLYLINE
  5
11E27
330
11CDF
100
AcDbEntity
  8
GLASABSTANDSHALTER
 62
     7
390
11ED1
100
AcDb2dPolyline
 66
     1
 10
0.0
 20
0.0
 30
0.0
 70
     1
  0
VERTEX
  5
11E28
330
11E27
100
AcDbEntity
  8
GLASABSTANDSHALTER
 62
     7
390
11ED1
100
AcDbVertex
100
AcDb2dVertex
 10
1.0
 20
0.0
 30
0.0
  0
VERTEX
  5
11E29
330
11E27
100
AcDbEntity
  8
GLASABSTANDSHALTER
 62
     7
390
11ED1
100
AcDbVertex
100
AcDb2dVertex
 10
1.0
 20
-5.0
 30
0.0
  0
VERTEX
  5
11E2A
330
11E27
100
AcDbEntity
  8
GLASABSTANDSHALTER
 62
     7
390
11ED1
100
AcDbVertex
100
AcDb2dVertex
 10
-47.0
 20
-5.0
 30
0.0
  0
VERTEX
  5
11E2B
330
11E27
100
AcDbEntity
  8
GLASABSTANDSHALTER
 62
     7
390
11ED1
100
AcDbVertex
100
AcDb2dVertex
 10
-47.0
 20
0.0
 30
0.0
  0
SEQEND
  5
11E2C
330
11E27
100
AcDbEntity
  8
GLASABSTANDSHALTER
 62
     7
390
11ED1
  0
LINE
  5
11E2E
330
11CDF
100
AcDbEntity
  8
GLASABSTANDSHALTER
  6
Continuous
 62
     7
390
11ED1
100
AcDbLine
 10
1.0
 20
0.0
 30
0.0
 11
-47.0
 21
-5.0
 31
0.0
  0
LINE
  5
11E2F
330
11CDF
100
AcDbEntity
  8
GLASABSTANDSHALTER
  6
Continuous
 62
     7
390
11ED1
100
AcDbLine
 10
1.0
 20
-5.0
 30
0.0
 11
-47.0
 21
0.0
 31
0.0
  0
ENDBLK
  5
11E30
330
11CDF
100
AcDbEntity
  8
0
 62
     0
390
11ED1
100
AcDbBlockEnd
  0
BLOCK
  5
11E31
330
11CE0
100
AcDbEntity
  8
PVC_INSIDE
 62
     0
390
11ED1
100
AcDbBlockBegin
  2
PRJ_INSERT_12_384038418086
 70
     0
 10
-320.4775135149991
 20
-394.4941723314978
 30
0.0
  3
PRJ_INSERT_12_384038418086
  1
PRJ_INSERT_12_384038418086
  0
INSERT
  5
11E32
330
11CE0
100
AcDbEntity
  8
ASSEMBLY
390
11ED1
100
AcDbBlockReference
  2
GLAS
 10
-331.9775035149987
 20
-394.4941723314978
 30
0.0
  0
INSERT
  5
11E33
330
11CE0
100
AcDbEntity
  8
ASSEMBLY
390
11ED1
100
AcDbBlockReference
  2
BASIS
 10
-320.4775135149991
 20
-394.4941723314978
 30
0.0
  0
LWPOLYLINE
  5
11E36
330
11CE0
100
AcDbEntity
  8
PVC_OUTSIDE
390
11ED1
100
AcDbPolyline
 90
       12
 70
     1
 43
0.0
 10
-322.003432792313
 20
-382.9561063073526
 42
0.3394542588634049
 10
-326.4505185216984
 20
-377.160551349618
 10
-328.8740232697618
 20
-376.5111752095217
 42
0.4931454260312724
 10
-329.503432792313
 20
-376.9941381226662
 10
-329.5034327923129
 20
-394.4941381226662
 10
-327.6657379701073
 20
-393.9941381226662
 10
-328.887654983953
 20
-400.9071509303163
 42
0.4664343165372532
 10
-328.3952872797915
 20
-401.4941799134129
 10
-325.8469906877449
 20
-401.4941799134129
 10
-323.8260631304245
 20
-397.9938307057178
 10
-324.2033474647917
 20
-394.4042100456796
 10
-322.003432792313
 20
-394.4941799134129
  0
POINT
  5
11E37
330
11CE0
100
AcDbEntity
  8
ASSEMBLY
 62
    10
390
11ED1
100
AcDbPoint
 10
-322.0275957908415
 20
-394.4941723314978
 30
0.0
  0
POINT
  5
11E38
330
11CE0
100
AcDbEntity
  8
ASSEMBLY
 62
    11
390
11ED1
100
AcDbPoint
 10
-328.8981862682903
 20
-376.5111676276066
 30
0.0
  0
LWPOLYLINE
  5
11E39
330
11CE0
100
AcDbEntity
  8
GASKET_OUTSIDE
390
11ED1
100
AcDbPolyline
 90
        9
 70
     1
 43
0.0
 10
-330.4534332102975
 20
-381.2401609479141
 42
0.9842065653880896
 10
-331.9775035149987
 20
-381.2401609479141
 10
-331.9775035149987
 20
-385.9263814999521
 42
0.3592441626124855
 10
-330.7234392102978
 20
-387.4018803172894
 42
0.0451999278854941
 10
-330.0046783384158
 20
-387.4672166074715
 10
-329.5034327923129
 20
-387.4673738893241
 10
-329.5034285734819
 20
-383.9685718409776
 10
-330.2034232102972
 20
-383.9685718409777
 42
0.1316583712024395
 10
-330.4534332102974
 20
-384.0355649127424
  0
LWPOLYLINE
  5
11E3A
330
11CE0
100
AcDbEntity
  8
GASKET_OUTSIDE
390
11ED1
100
AcDbPolyline
 90
       16
 70
     1
 43
0.0
 10
-329.0034232103005
 20
-376.4943643222539
 10
-328.9035808013241
 20
-376.4943643222539
 10
-330.1772139223248
 20
-375.7604335965323
 42
-0.2296515423847433
 10
-331.1576351091638
 20
-374.3166883012913
 42
0.9028066028445183
 10
-331.9775035149987
 20
-374.3745144470971
 10
-331.9775035149987
 20
-375.1171894470204
 42
0.205869362541753
 10
-331.3223153107037
 20
-376.5753258587417
 10
-330.7094540728173
 20
-377.150673111462
 42
-0.5098458615201661
 10
-330.7599663373351
 20
-377.6336282886634
 10
-331.6370316278349
 20
-378.1400021702304
 42
0.6003778213944138
 10
-331.6370316278349
 20
-378.6942584286526
 10
-330.2534232103001
 20
-379.4930851209692
 42
-0.2679491924311345
 10
-330.0034232103001
 20
-379.9260978228615
 10
-330.0034232103001
 20
-381.9685718409777
 42
0.414213562373094
 10
-329.5034232103001
 20
-382.4685718409777
 10
-329.5034232103001
 20
-376.9943643222534
 42
-0.414213562373095
  0
ARC
  5
11E3B
330
11CE0
100
AcDbEntity
  8
GASKET_OUTSIDE
390
11ED1
100
AcDbCircle
 10
-330.2034232102971
 20
-384.4685718409777
 30
0.0
 40
0.4999999999999941
100
AcDbArc
 50
120.0013231982211
 51
180.0
  0
LINE
  5
11E3C
330
11CE0
100
AcDbEntity
  8
GASKET_OUTSIDE
390
11ED1
100
AcDbLine
 10
-330.703423210297
 20
-384.4685718409777
 30
0.0
 11
-330.703423210297
 21
-385.9685718409778
 31
0.0
  0
INSERT
  5
11E3D
330
11CE0
100
AcDbEntity
  8
DIM_PROFILE
390
11ED1
100
AcDbBlockReference
  2
DIM_GLASLEISTE_OBEN
 10
-329.5034232103002
 20
-376.5068354576496
 30
0.0
  0
INSERT
  5
11E3F
330
11CE0
100
AcDbEntity
  8
0
390
11ED1
100
AcDbBlockReference
  2
DIM_GLASLEISTE_UNTEN
 10
-322.003432792313
 20
-394.4941799134129
 30
0.0
  0
INSERT
  5
11E40
330
11CE0
100
AcDbEntity
  8
0
  6
Continuous
 62
     7
390
11ED1
100
AcDbBlockReference
  2
PRJ_INSERT_13_384038323999
 10
-331.9775035149987
 20
-394.4941723314978
 30
0.0
  0
ENDBLK
  5
11E41
330
11CE0
100
AcDbEntity
  8
PVC_INSIDE
 62
     0
390
11ED1
100
AcDbBlockEnd
  0
BLOCK
  5
11E42
330
11CE1
100
AcDbEntity
  8
ASSEMBLY
  6
VONLAYER
 62
     0
390
11ED1
100
AcDbBlockBegin
  2
PRJ_INSERT_11_384038518730
 70
     0
 10
-22.05280323012875
 20
256.9871455181695
 30
0.0
  3
PRJ_INSERT_11_384038518730
  1
PRJ_INSERT_11_384038518730
  0
POINT
  5
11E43
330
11CE1
100
AcDbEntity
  8
ASSEMBLY
  6
Continuous
 62
    10
390
11ED1
100
AcDbPoint
 10
-18.55280323012875
 20
248.9871455181695
 30
0.0
  0
POINT
  5
11E44
330
11CE1
100
AcDbEntity
  8
ASSEMBLY
  6
Continuous
 62
    11
390
11ED1
100
AcDbPoint
 10
-18.55280612716609
 20
374.4871462944086
 30
0.0
  0
POINT
  5
11E45
330
11CE1
100
AcDbEntity
  8
ASSEMBLY
  6
Continuous
 62
   161
390
11ED1
100
AcDbPoint
 10
-79.55280123012898
 20
269.9871455181694
 30
0.0
  0
POINT
  5
11E46
330
11CE1
100
AcDbEntity
  8
ASSEMBLY
  6
Continuous
 62
   160
390
11ED1
100
AcDbPoint
 10
-78.55280323012886
 20
354.9871455181802
 30
0.0
  0
INSERT
  5
11E47
330
11CE1
100
AcDbEntity
  8
DIM_PROFILE
390
11ED1
100
AcDbBlockReference
  2
DIM_FLUEGEL_AUSSEN_OBEN
 10
-5.552803230130124
 20
374.9701100366524
 30
0.0
  0
INSERT
  5
11E48
330
11CE1
100
AcDbEntity
  8
DIM_PROFILE
390
11ED1
100
AcDbBlockReference
  2
DIM_FLUEGEL_INNEN_OBEN
 10
-79.55280323012887
 20
354.9871455181697
 30
0.0
  0
INSERT
  5
11E49
330
11CE1
100
AcDbEntity
  8
DIM_PROFILE
390
11ED1
100
AcDbBlockReference
  2
DIM_FLUEGEL_INNEN_UNTEN
 10
-5.552803230128518
 20
248.9871455181696
 30
0.0
  0
INSERT
  5
11E4A
330
11CE1
100
AcDbEntity
  8
ASSEMBLY
390
11ED1
100
AcDbBlockReference
  2
BASIS
 10
-22.05280323012875
 20
256.9871455181695
 30
0.0
  0
INSERT
  5
11E4B
330
11CE1
100
AcDbEntity
  8
ASSEMBLY
390
11ED1
100
AcDbBlockReference
  2
GLASLEISTE
 10
-79.55280323012887
 20
354.9871455181697
 30
0.0
 41
-1.0
  0
INSERT
  5
11E4C
330
11CE1
100
AcDbEntity
  8
ASSEMBLY
390
11ED1
100
AcDbBlockReference
  2
VERKLOTZUNG
 10
-79.55280323012887
 20
354.9871455181697
 30
0.0
 41
-1.0
  0
INSERT
  5
11E4D
330
11CE1
100
AcDbEntity
  8
ASSEMBLY
390
11ED1
100
AcDbBlockReference
  2
STAHL1
 10
-43.85736662739325
 20
345.695075057334
 30
0.0
  0
INSERT
  5
11E4E
330
11CE1
100
AcDbEntity
  8
ASSEMBLY
390
11ED1
100
AcDbBlockReference
  2
ALU-VSS
 10
-18.55288519239122
 20
368.8986308035489
 30
0.0
 41
-1.0
  0
INSERT
  5
11E4F
330
11CE1
100
AcDbEntity
  8
ASSEMBLY
390
11ED1
100
AcDbBlockReference
  2
DICHTUNG_GD
 10
-18.55288519239122
 20
368.8986308035489
 30
0.0
 41
-1.0
  0
INSERT
  5
11E50
330
11CE1
100
AcDbEntity
  8
ASSEMBLY
390
11ED1
100
AcDbBlockReference
  2
DICHTUNG_AD
 10
-18.55280323012875
 20
254.7371453036968
 30
0.0
 41
-1.0
 42
-1.0
  0
INSERT
  5
11E51
330
11CE1
100
AcDbEntity
  8
DIM_PROFILE
390
11ED1
100
AcDbBlockReference
  2
DIM_FLUEGEL_AUSSEN_UNTEN
 10
-79.55280123012898
 20
269.9871455181694
 30
0.0
  0
LWPOLYLINE
  5
11E52
330
11CE1
100
AcDbEntity
  8
PVC_INSIDE
390
11ED1
100
AcDbPolyline
 90
        8
 70
     1
 43
0.0
 10
-76.55280323012875
 20
301.9871455181698
 42
-0.4142135623730929
 10
-76.05280323012875
 20
302.4871455181698
 10
-73.5528032301282
 20
302.4871455181698
 42
-0.4142135623730804
 10
-73.05280323012818
 20
301.9871455181698
 10
-73.0528032301284
 20
278.1871455181694
 42
-0.4142135623730994
 10
-73.55280323012835
 20
277.6871455181694
 10
-76.05280323012894
 20
277.6871455181692
 42
-0.414213562373107
 10
-76.55280323012897
 20
278.1871455181692
  0
LWPOLYLINE
  5
11E53
330
11CE1
100
AcDbEntity
  8
PVC_INSIDE
390
11ED1
100
AcDbPolyline
 90
        8
 70
     1
 43
0.0
 10
-72.25280323012822
 20
301.9871455181698
 42
-0.4142135623730951
 10
-71.75280323012822
 20
302.4871455181698
 10
-69.15284119931442
 20
302.4871455181698
 42
-0.4142135623730952
 10
-68.65284119931442
 20
301.9871455181698
 10
-68.65284119931442
 20
278.1871455181696
 42
-0.4142135623730737
 10
-69.15284119931437
 20
277.6871455181696
 10
-71.75280323012817
 20
277.6871455181694
 42
-0.4142135623731165
 10
-72.25280323012822
 20
278.1871455181694
  0
LWPOLYLINE
  5
11E54
330
11CE1
100
AcDbEntity
  8
PVC_INSIDE
390
11ED1
100
AcDbPolyline
 90
        8
 70
     1
 43
0.0
 10
-76.55280323012875
 20
322.9871455181698
 42
-0.4142135623730951
 10
-76.05280323012875
 20
323.4871455181698
 10
-73.55280323012798
 20
323.4871455181698
 42
-0.4142135623730826
 10
-73.05280323012795
 20
322.9871455181698
 10
-73.0528032301284
 20
303.7871455181697
 42
-0.4142135623731082
 10
-73.55280323012843
 20
303.2871455181697
 10
-76.05280323012879
 20
303.2871455181698
 42
-0.4142135623730943
 10
-76.55280323012875
 20
303.7871455181698
  0
LWPOLYLINE
  5
11E55
330
11CE1
100
AcDbEntity
  8
PVC_INSIDE
390
11ED1
100
AcDbPolyline
 90
        8
 70
     1
 43
0.0
 10
-72.25280323012868
 20
322.9871455181698
 42
-0.4142135623730992
 10
-71.75280323012868
 20
323.4871455181698
 10
-69.15284119931442
 20
323.4871455181698
 42
-0.4142135623730908
 10
-68.65284119931442
 20
322.9871455181698
 10
-68.65284119931442
 20
303.7871455181697
 42
-0.4142135623730952
 10
-69.15284119931442
 20
303.2871455181697
 10
-71.75280323012868
 20
303.2871455181697
 42
-0.4142135623730951
 10
-72.25280323012868
 20
303.7871455181697
  0
LWPOLYLINE
  5
11E56
330
11CE1
100
AcDbEntity
  8
PVC_INSIDE
390
11ED1
100
AcDbPolyline
 90
        8
 70
     1
 43
0.0
 10
-76.55280323012875
 20
343.9871455181695
 42
-0.4142135623731062
 10
-76.05280323012872
 20
344.4871455181695
 10
-73.55280323012747
 20
344.4871455181694
 42
-0.4142135623730879
 10
-73.0528032301275
 20
343.9871455181694
 10
-73.05280323012795
 20
324.7871455181697
 42
-0.4142135623731082
 10
-73.55280323012798
 20
324.2871455181697
 10
-76.05280323012876
 20
324.2871455181698
 42
-0.4142135623730775
 10
-76.55280323012875
 20
324.7871455181698
  0
LWPOLYLINE
  5
11E57
330
11CE1
100
AcDbEntity
  8
PVC_INSIDE
390
11ED1
100
AcDbPolyline
 90
        8
 70
     1
 43
0.0
 10
-72.25280323012868
 20
343.9871455181695
 42
-0.4142135623730951
 10
-71.75280323012868
 20
344.4871455181695
 10
-69.15284119931465
 20
344.4871455181695
 42
-0.4142135623730952
 10
-68.65284119931465
 20
343.9871455181695
 10
-68.65284119931442
 20
324.7871455181698
 42
-0.4142135623730675
 10
-69.15284119931438
 20
324.2871455181698
 10
-71.7528032301286
 20
324.2871455181696
 42
-0.414213562373106
 10
-72.25280323012868
 20
324.7871455181696
  0
LWPOLYLINE
  5
11E58
330
11CE1
100
AcDbEntity
  8
PVC_INSIDE
390
11ED1
100
AcDbPolyline
 90
       51
 70
     1
 43
0.0
 10
-67.45284119931563
 20
347.6871455181698
 42
-0.4142135623731038
 10
-66.95284119931563
 20
348.1871455181698
 10
-53.95284119931537
 20
348.1871455181697
 42
-0.4142135623731408
 10
-53.4528411993154
 20
347.6871455181696
 10
-53.45284119931551
 20
346.6871455181699
 42
0.41421356237322
 10
-52.9528411993154
 20
346.1871455181698
 42
0.4142135623731031
 10
-52.4528411993154
 20
346.6871455181698
 10
-52.4528411993154
 20
347.6871455181697
 42
-0.4142135623730991
 10
-51.9528411993154
 20
348.1871455181697
 10
-38.95284119931539
 20
348.1871455181696
 42
-0.4142135623730887
 10
-38.4528411993154
 20
347.6871455181696
 10
-38.4528411993154
 20
346.6871455181696
 42
0.4142135623730951
 10
-37.9528411993154
 20
346.1871455181696
 42
0.4142135623730951
 10
-37.4528411993154
 20
346.6871455181696
 10
-37.45284119931551
 20
347.6871455181695
 42
-0.4142135623731471
 10
-36.95284119931555
 20
348.1871455181696
 10
-33.83658334645875
 20
348.1871455181696
 10
-20.9488588953656
 20
345.4478167270084
 42
-0.3541194415609946
 10
-20.5528132301294
 20
344.9587426055465
 10
-20.55281323012883
 20
282.7871455181696
 42
-0.4142135623730906
 10
-21.05281323012881
 20
282.2871455181696
 10
-24.72794368399985
 20
282.2871455181695
 42
0.1946005043014817
 10
-26.95280323012891
 20
283.1871455181697
 10
-31.80280323012805
 20
283.1871455181695
 42
-0.4142135623731098
 10
-32.05280323012806
 20
283.4371455181695
 10
-32.05280323012806
 20
284.9371455181695
 42
0.4142135623730951
 10
-32.30280323012806
 20
285.1871455181695
 10
-33.80280323012806
 20
285.1871455181695
 42
0.4142135623730951
 10
-34.05280323012806
 20
284.9371455181695
 10
-34.05280323012806
 20
283.7371455181694
 42
-0.4142135623731159
 10
-34.30280323012808
 20
283.4871455181694
 10
-35.80280323012853
 20
283.4871455181695
 42
-0.4142135623730659
 10
-36.05280323012852
 20
283.7371455181695
 10
-36.05280323012852
 20
284.9371455181695
 42
0.4142135623730951
 10
-36.30280323012852
 20
285.1871455181695
 10
-37.80280323012852
 20
285.1871455181695
 42
0.414213562373095
 10
-38.05280323012852
 20
284.9371455181695
 10
-38.05280323012852
 20
283.4371455181696
 42
-0.4142135623731074
 10
-38.30280323012853
 20
283.1871455181696
 10
-43.15280323012851
 20
283.1871455181697
 42
0.1946005043014747
 10
-45.37766277625754
 20
282.2871455181695
 10
-48.53897402628792
 20
281.5480382586657
 42
-0.4831995576000029
 10
-49.15280323012865
 20
282.0349087880193
 10
-49.15280323012843
 20
284.6871455181694
 42
0.4142135623731533
 10
-49.65280323012843
 20
285.1871455181695
 42
0.4142135623731616
 10
-50.15280323012854
 20
284.6871455181695
 10
-50.15280323012854
 20
281.5673134131591
 42
-0.3484362166587494
 10
-50.53897402628785
 20
281.0804428838056
 10
-65.052793230129
 20
277.6871455181695
 10
-66.95284119931456
 20
277.6871455181694
 42
-0.4142135623731195
 10
-67.4528411993146
 20
278.1871455181694
  0
LWPOLYLINE
  5
11E59
330
11CE1
100
AcDbEntity
  8
PVC_INSIDE
390
11ED1
100
AcDbPolyline
 90
       13
 70
     1
 43
0.0
 10
-64.55279323012866
 20
275.1381029417061
 10
-64.55279323012866
 20
276.1750991900897
 42
-0.3484362166587487
 10
-64.16662243396937
 20
276.6619697194432
 10
-46.96663243396931
 20
280.6832876052636
 42
-0.4831995575999538
 10
-46.35280323012859
 20
280.19641707591
 10
-46.3528032301287
 20
275.3871455181695
 42
0.1520427135875675
 10
-45.78744906134659
 20
273.5709293019534
 42
-0.6043149136755054
 10
-46.1991124724744
 20
272.7871455181696
 10
-49.35280323012825
 20
272.7871455181696
 42
0.4142135623730951
 10
-49.85280323012825
 20
272.2871455181696
 10
-49.85280323012825
 20
271.6871455181695
 10
-50.22191441154042
 20
271.6871455181694
 10
-64.15674716414334
 20
274.6490287350636
 42
-0.354119672100348
  0
LWPOLYLINE
  5
11E5A
330
11CE1
100
AcDbEntity
  8
PVC_INSIDE
390
11ED1
100
AcDbPolyline
 90
       33
 70
     1
 43
0.0
 10
-16.05280323012875
 20
263.3871455181695
 42
-0.4142135623731054
 10
-15.55280323012877
 20
263.8871455181695
 10
-12.75280323012959
 20
263.8871455181695
 42
0.4142135623731616
 10
-12.25280323012959
 20
264.3871455181696
 42
0.4142135623730951
 10
-12.75280323012959
 20
264.8871455181696
 10
-15.55280323012875
 20
264.8871455181696
 42
-0.4142135623730951
 10
-16.05280323012875
 20
265.3871455181696
 10
-16.05280323012875
 20
268.0871455181697
 42
-0.4142135623730434
 10
-15.5528032301288
 20
268.5871455181697
 10
-9.052803230128816
 20
268.5871455181706
 42
-0.4142135623731388
 10
-8.552803230128745
 20
268.0871455181706
 10
-8.552803230128745
 20
265.3871455181696
 42
-0.4142135623730951
 10
-9.052803230128745
 20
264.8871455181696
 10
-10.15280323012888
 20
264.8871455181696
 42
0.4142135623731616
 10
-10.65280323012888
 20
264.3871455181695
 42
0.4142135623730951
 10
-10.15280323012888
 20
263.8871455181695
 10
-9.052803230128745
 20
263.8871455181695
 42
-0.4142135623730951
 10
-8.552803230128745
 20
263.3871455181695
 10
-8.552803230128745
 20
260.0871455181697
 42
-0.4142135623730951
 10
-9.052803230128745
 20
259.5871455181697
 10
-10.15280323012888
 20
259.5871455181697
 42
0.4142135623731616
 10
-10.65280323012888
 20
259.0871455181696
 42
0.4142135623730951
 10
-10.15280323012888
 20
258.5871455181696
 10
-9.052803230128745
 20
258.5871455181696
 42
-0.4142135623730951
 10
-8.552803230128745
 20
258.0871455181696
 10
-8.552803230128745
 20
252.4871455181696
 42
-0.4142135623730951
 10
-9.052803230128745
 20
251.9871455181696
 10
-11.75280323012868
 20
251.9871455181696
 42
-0.4142135623730975
 10
-12.25280323012868
 20
252.4871455181696
 10
-12.25280323012856
 20
257.4871455181695
 42
0.4142135623731029
 10
-14.55280323012857
 20
259.7871455181696
 10
-15.55280323012887
 20
259.7871455181696
 42
-0.4142135623731013
 10
-16.05280323012886
 20
260.2871455181696
  0
LWPOLYLINE
  5
11E5B
330
11CE1
100
AcDbEntity
  8
PVC_INSIDE
390
11ED1
100
AcDbPolyline
 90
       15
 70
     1
 43
0.0
 10
-19.35281323012879
 20
280.5871455181697
 42
-0.4142135623730952
 10
-18.85281323012879
 20
281.0871455181697
 10
-9.052803230128625
 20
281.0871455181697
 42
-0.4142135623730951
 10
-8.552803230128632
 20
280.5871455181697
 10
-8.552803230128745
 20
270.4871455181697
 42
-0.4142135623730919
 10
-9.05280323012878
 20
269.9871455181697
 10
-13.57492734317336
 20
269.9871455181695
 10
-13.87492734309815
 20
270.2871455180943
 10
-14.17492734302299
 20
269.9871455181695
 10
-15.55280323012859
 20
269.9871455181694
 42
-0.4142135623731192
 10
-16.05280323012863
 20
270.4871455181694
 10
-16.05280323012863
 20
271.1871455181696
 42
0.4142135623730837
 10
-16.55280323012861
 20
271.6871455181696
 10
-18.85281323012881
 20
271.6871455181697
 42
-0.4142135623730837
 10
-19.35281323012879
 20
272.1871455181697
  0
LWPOLYLINE
  5
11E5C
330
11CE1
100
AcDbEntity
  8
PVC_INSIDE
390
11ED1
100
AcDbPolyline
 90
        8
 70
     1
 43
0.0
 10
-19.35281323012879
 20
301.9871455181664
 42
-0.4142135623731173
 10
-18.85281323012875
 20
302.4871455181664
 10
-9.052803230127658
 20
302.4871455181656
 42
-0.4142135623731146
 10
-8.552803230127722
 20
301.9871455181655
 10
-8.552803230129086
 20
282.7871455181697
 42
-0.414213562373048
 10
-9.052803230129093
 20
282.2871455181697
 10
-18.85281323012867
 20
282.2871455181696
 42
-0.414213562373096
 10
-19.35281323012867
 20
282.7871455181696
  0
LWPOLYLINE
  5
11E5D
330
11CE1
100
AcDbEntity
  8
PVC_INSIDE
390
11ED1
100
AcDbPolyline
 90
        8
 70
     1
 43
0.0
 10
-19.35281323012902
 20
322.987145518166
 42
-0.4142135623731196
 10
-18.85281323012898
 20
323.487145518166
 10
-9.052803230126308
 20
323.4871455181653
 42
-0.4142135623731117
 10
-8.552803230126358
 20
322.9871455181653
 10
-8.552803230127495
 20
303.7871455181656
 42
-0.4142135623730784
 10
-9.052803230127545
 20
303.2871455181656
 10
-18.85281323012882
 20
303.2871455181663
 42
-0.4142135623730714
 10
-19.35281323012879
 20
303.7871455181663
  0
LWPOLYLINE
  5
11E5E
330
11CE1
100
AcDbEntity
  8
PVC_INSIDE
390
11ED1
100
AcDbPolyline
 90
        8
 70
     1
 43
0.0
 10
-19.35281323012902
 20
344.491125272213
 42
-0.4769745848227383
 10
-18.7488588953652
 20
344.980199393675
 10
-8.948848895361081
 20
342.8971746014741
 42
-0.3541194415610165
 10
-8.55280323012488
 20
342.4081004800121
 10
-8.55280323012613
 20
324.7871455181653
 42
-0.414213562373076
 10
-9.05280323012618
 20
324.2871455181654
 10
-18.85281323012905
 20
324.2871455181661
 42
-0.4142135623730779
 10
-19.35281323012902
 20
324.7871455181661
  0
LWPOLYLINE
  5
11E5F
330
11CE1
100
AcDbEntity
  8
PVC_INSIDE
390
11ED1
100
AcDbPolyline
 90
       11
 70
     1
 43
0.0
 10
-16.05280612716598
 20
363.3486307477835
 42
-0.4142135623730963
 10
-15.55280612716599
 20
363.8486307477835
 10
-14.67170939031752
 20
363.8486307477835
 42
0.4290488181981753
 10
-12.25280612716602
 20
366.1526248122525
 10
-12.25280612716602
 20
369.5456287354991
 42
-0.3894248445542411
 10
-11.7954331659114
 20
370.0416161500658
 42
-0.4381309981930459
 10
-8.552803230127154
 20
367.0514389114811
 10
-8.552803230128177
 20
344.6572483120669
 42
-0.4769745848227785
 10
-9.15675756489194
 20
344.168174190605
 10
-15.65676046192988
 20
345.5497714730466
 42
-0.3541194415610058
 10
-16.05280612716609
 20
346.0388455945086
  0
LWPOLYLINE
  5
11E60
330
11CE1
100
AcDbEntity
  8
PVC_INSIDE
390
11ED1
100
AcDbPolyline
 90
        9
 70
     1
 43
0.0
 10
-23.75280323012856
 20
280.5871455181697
 42
-0.4142135623731095
 10
-23.25280323012859
 20
281.0871455181697
 10
-21.0528132301286
 20
281.0871455181697
 42
-0.4142135623730991
 10
-20.55281323012861
 20
280.5871455181697
 10
-20.55281323012883
 20
273.1371455181696
 42
-0.4142135623730949
 10
-20.75281323012883
 20
272.9371455181696
 10
-23.80836369342239
 20
272.9371455181696
 42
-0.5878983588362316
 10
-24.23328795513942
 20
273.7006590316831
 42
0.1396724046951567
 10
-23.75280323012856
 20
275.3871455181693
  0
LWPOLYLINE
  5
11E61
330
11CE1
100
AcDbEntity
  8
PVC_OUTSIDE
390
11ED1
100
AcDbPolyline
 90
       78
 70
     1
 43
0.0
 10
-79.55280323012886
 20
353.9871455181697
 42
-0.4142135623730959
 10
-78.55280323012886
 20
354.9871455181697
 10
-77.0528032301287
 20
354.9871455181697
 10
-76.05281323012895
 20
353.1871635181702
 10
-76.05281323012895
 20
350.1871455181696
 10
-76.75280323012879
 20
350.1871455181696
 10
-76.75280323012879
 20
347.6871455181696
 10
-76.25280323012862
 20
347.1871455181695
 10
-70.63823323012876
 20
347.1871455181695
 42
0.7372684837161658
 10
-71.2829443581451
 20
349.4867458170753
 10
-72.25280323012879
 20
354.9871455181697
 10
-68.30450323012877
 20
354.9871455181697
 10
-68.66320323012877
 20
350.8871455181697
 10
-33.55280612716664
 20
350.8871455181697
 10
-18.55280612716599
 20
347.6988455181697
 10
-18.55280612716609
 20
366.1486307477836
 10
-17.55280612716607
 20
367.1486307477835
 10
-17.05280612716609
 20
367.1486307477835
 10
-17.0528061271661
 20
365.6486307477836
 10
-14.55280612716611
 20
365.6486307477835
 42
0.4142135623731034
 10
-14.05280612716609
 20
366.1486307477835
 10
-14.05280612716609
 20
370.9611196765007
 42
0.3394542588633785
 10
-14.42339660461484
 20
371.4440825896453
 10
-17.05280612716609
 20
372.1486307477836
 10
-17.05280612716609
 20
370.6486307477837
 10
-17.55280612716611
 20
370.6486307477837
 10
-18.55280612716609
 20
371.6486307477836
 10
-18.55280612716609
 20
374.4871462944086
 42
-0.4931434347918882
 10
-17.92339969889491
 20
374.9701100366523
 10
-9.999926090875725
 20
372.8470760913891
 42
-0.3394560451446166
 10
-5.55280323013011
 20
367.0515111844641
 10
-5.552803230128518
 20
251.4871455181696
 42
-0.4142135623730991
 10
-8.052803230128518
 20
248.9871455181696
 10
-18.55280323012875
 20
248.9871455181695
 10
-18.55280323012875
 20
251.9871455181696
 10
-17.55280323012875
 20
252.9871455181696
 10
-17.05280323012875
 20
252.9871455181696
 10
-17.05280323012875
 20
251.3871455181694
 10
-14.55280323012875
 20
251.3871455181694
 42
0.4142135623730951
 10
-14.05280323012875
 20
251.8871455181694
 10
-14.05280323012875
 20
257.4871455181695
 42
0.4142135623730951
 10
-14.55280323012875
 20
257.9871455181695
 10
-17.05280323012874
 20
257.9871455181695
 10
-17.05280323012875
 20
256.4871455181695
 10
-17.55280323012872
 20
256.4871455181695
 10
-18.55280323012875
 20
257.4871355182695
 10
-18.55280323012874
 20
268.9871455181695
 10
-22.95280323012827
 20
268.9871455181697
 10
-22.95280323012827
 20
270.0871455181696
 10
-26.9528032301286
 20
270.0871455181696
 10
-26.95280323012861
 20
271.1871455181696
 10
-28.95280323012861
 20
271.1871455181696
 10
-28.95280323012862
 20
273.8871455181695
 10
-26.95280323012846
 20
273.8871455181696
 42
0.4142135623730804
 10
-26.4528032301285
 20
274.3871455181696
 10
-26.45280323012861
 20
279.9871455181695
 42
0.4142135623731096
 10
-26.95280323012859
 20
280.4871455181695
 10
-34.55280323012862
 20
280.4871455181695
 10
-35.05280323012864
 20
280.9871455181695
 10
-35.55280323012867
 20
280.4871455181695
 10
-43.15280323012877
 20
280.4871455181695
 42
0.4142135623730951
 10
-43.65280323012877
 20
279.9871455181695
 10
-43.65280323012877
 20
274.3871455181696
 42
0.4142135623730951
 10
-43.15280323012877
 20
273.8871455181696
 10
-41.15280323012877
 20
273.8871455181696
 10
-41.15280323012877
 20
271.1871455181696
 10
-43.15280323012865
 20
271.1871455181696
 10
-43.15280323012865
 20
270.0871455181696
 10
-47.1528032301282
 20
270.0871455181696
 10
-47.1528032301282
 20
268.9871455181695
 10
-50.5056905124185
 20
268.9871455181695
 10
-65.55280323012784
 20
272.1854465966646
 10
-65.55280323012772
 20
270.9871455181693
 10
-67.05280323012772
 20
270.9871455181693
 10
-67.05280323012784
 20
274.9871455181693
 10
-76.55280323012784
 20
274.9871455181693
 10
-76.55280323012761
 20
269.9871455181693
 10
-79.55280323012886
 20
269.9871455181694
  0
INSERT
  5
11E62
330
11CE1
100
AcDbEntity
  8
0
  6
Continuous
 62
     7
390
11ED1
100
AcDbBlockReference
  2
PRJ_INSERT_18_384038131086
 10
-18.55280323012875
 20
254.7371453036968
 30
0.0
 50
180.0
  0
INSERT
  5
11E63
330
11CE1
100
AcDbEntity
  8
0
  6
Continuous
 62
     7
390
11ED1
100
AcDbBlockReference
  2
PRJ_INSERT_17_38403816970
 10
-22.05280323012875
 20
256.9871455181695
 30
0.0
  0
INSERT
  5
11E64
330
11CE1
100
AcDbEntity
  8
0
  6
Continuous
 62
     7
390
11ED1
100
AcDbBlockReference
  2
PRJ_INSERT_16_384038226484
 10
-79.55280323012887
 20
354.9871455181697
 30
0.0
 42
-1.0
 50
180.0
  0
INSERT
  5
11E65
330
11CE1
100
AcDbEntity
  8
0
  6
Continuous
 62
     7
390
11ED1
100
AcDbBlockReference
  2
PRJ_INSERT_15_384038320614
 10
-18.55288519239122
 20
368.8986308035489
 30
0.0
 42
-1.0
 50
180.0
  0
INSERT
  5
11E66
330
11CE1
100
AcDbEntity
  8
0
  6
Continuous
 62
     7
390
11ED1
100
AcDbBlockReference
  2
PRJ_INSERT_14_384038323431
 10
-43.85736662739325
 20
345.695075057334
 30
0.0
  0
INSERT
  5
11E67
330
11CE1
100
AcDbEntity
  8
0
  6
Continuous
 62
     7
390
11ED1
100
AcDbBlockReference
  2
PRJ_INSERT_12_384038418086
 10
-79.55280323012887
 20
354.9871455181697
 30
0.0
 42
-1.0
 50
180.0
  0
ENDBLK
  5
11E68
330
11CE1
100
AcDbEntity
  8
ASSEMBLY
  6
VONLAYER
 62
     0
390
11ED1
100
AcDbBlockEnd
  0
BLOCK
  5
11E69
330
11CE2
100
AcDbEntity
  8
0
  6
ByBlock
 62
     0
390
11ED1
100
AcDbBlockBegin
  2
SLASH_OPEN
 70
     0
 10
0.0
 20
0.0
 30
0.0
  3
SLASH_OPEN
  1
SLASH_OPEN
  0
LINE
  5
11E6A
330
11CE2
100
AcDbEntity
  8
0
  6
ByBlock
 62
     0
390
11ED1
100
AcDbLine
 10
0.0
 20
0.0
 30
0.0
 11
1.0
 21
0.0
 31
0.0
  0
LINE
  5
11E6B
330
11CE2
100
AcDbEntity
  8
0
  6
ByBlock
 62
     0
390
11ED1
100
AcDbLine
 10
0.0
 20
0.0
 30
0.0
 11
1.0
 21
0.1564344650402312
 31
0.0
  0
LINE
  5
11E6C
330
11CE2
100
AcDbEntity
  8
0
  6
ByBlock
 62
     0
390
11ED1
100
AcDbLine
 10
0.0
 20
0.0
 30
0.0
 11
1.0
 21
-0.1564344650402312
 31
0.0
  0
ENDBLK
  5
11E6D
330
11CE2
100
AcDbEntity
  8
0
  6
ByBlock
 62
     0
390
11ED1
100
AcDbBlockEnd
  0
BLOCK
  5
11E6E
330
11CE3
100
AcDbEntity
  8
PR_DIMENSION
  6
VONLAYER
 62
     0
390
11ED1
100
AcDbBlockBegin
  2
*D31
 70
     1
 10
0.0
 20
0.0
 30
0.0
  3
*D31
  1
*D31
  0
POINT
  5
11E6F
330
11CE3
100
AcDbEntity
  8
DEFPOINTS
  6
Continuous
390
11ED1
100
AcDbPoint
 10
-16.49999999999862
 20
-18.00000003532811
 30
0.0
  0
POINT
  5
11E70
330
11CE3
100
AcDbEntity
  8
DEFPOINTS
  6
Continuous
390
11ED1
100
AcDbPoint
 10
82.49999999999986
 20
-18.00000003532811
 30
0.0
  0
POINT
  5
11E71
330
11CE3
100
AcDbEntity
  8
DEFPOINTS
  6
Continuous
390
11ED1
100
AcDbPoint
 10
33.00000000000062
 20
-64.00000003532811
 30
0.0
  0
LINE
  5
11E72
330
11CE3
100
AcDbEntity
  8
PR_DIMENSION
  6
VONLAYER
 62
     7
390
11ED1
100
AcDbLine
 10
-16.49999999999862
 20
-64.00000003532811
 30
0.0
 11
82.49999999999986
 21
-64.00000003532811
 31
0.0
  0
LINE
  5
11E73
330
11CE3
100
AcDbEntity
  8
PR_DIMENSION
  6
VONLAYER
 62
     7
390
11ED1
100
AcDbLine
 10
-16.49999999999862
 20
-19.00000003532811
 30
0.0
 11
-16.49999999999862
 21
-65.25000003532811
 31
0.0
  0
LINE
  5
11E74
330
11CE3
100
AcDbEntity
  8
PR_DIMENSION
  6
VONLAYER
 62
     7
390
11ED1
100
AcDbLine
 10
82.49999999999986
 20
-19.00000003532811
 30
0.0
 11
82.49999999999986
 21
-65.25000003532811
 31
0.0
  0
TEXT
  5
11E75
330
11CE3
100
AcDbEntity
  8
PR_DIMENSION
  6
VONLAYER
 62
     7
390
11ED1
100
AcDbText
 10
30.50000000000062
 20
-62.00000003532811
 30
0.0
 40
3.0
  1
99
 72
     1
 11
33.00000000000062
 21
-60.50000003532811
 31
0.0
100
AcDbText
 73
     2
  0
INSERT
  5
11E76
330
11CE3
100
AcDbEntity
  8
PR_DIMENSION
  6
VONLAYER
 62
     7
390
11ED1
100
AcDbBlockReference
  2
SLASH_OPEN
 10
-16.49999999999862
 20
-64.00000003532811
 30
0.0
 41
3.0
 42
3.0
 43
3.0
 50
0.0
  0
INSERT
  5
11E77
330
11CE3
100
AcDbEntity
  8
PR_DIMENSION
  6
VONLAYER
 62
     7
390
11ED1
100
AcDbBlockReference
  2
SLASH_OPEN
 10
82.49999999999986
 20
-64.00000003532811
 30
0.0
 41
3.0
 42
3.0
 43
3.0
 50
179.9999999999546
  0
ENDBLK
  5
11E78
330
11CE3
100
AcDbEntity
  8
PR_DIMENSION
  6
VONLAYER
 62
     0
390
11ED1
100
AcDbBlockEnd
  0
BLOCK
  5
11E79
330
11CE4
100
AcDbEntity
  8
PR_DIMENSION
  6
VONLAYER
 62
     0
390
11ED1
100
AcDbBlockBegin
  2
*D32
 70
     1
 10
0.0
 20
0.0
 30
0.0
  3
*D32
  1
*D32
  0
POINT
  5
11E7A
330
11CE4
100
AcDbEntity
  8
DEFPOINTS
  6
Continuous
390
11ED1
100
AcDbPoint
 10
-16.50000000000023
 20
-18.00000003532811
 30
0.0
  0
POINT
  5
11E7B
330
11CE4
100
AcDbEntity
  8
DEFPOINTS
  6
Continuous
390
11ED1
100
AcDbPoint
 10
57.50000000000013
 20
-18.00000003532811
 30
0.0
  0
POINT
  5
11E7C
330
11CE4
100
AcDbEntity
  8
DEFPOINTS
  6
Continuous
390
11ED1
100
AcDbPoint
 10
20.49999999999995
 20
-55.00000003532811
 30
0.0
  0
LINE
  5
11E7D
330
11CE4
100
AcDbEntity
  8
PR_DIMENSION
  6
VONLAYER
 62
     7
390
11ED1
100
AcDbLine
 10
-16.50000000000023
 20
-55.00000003532811
 30
0.0
 11
57.50000000000013
 21
-55.00000003532811
 31
0.0
  0
LINE
  5
11E7E
330
11CE4
100
AcDbEntity
  8
PR_DIMENSION
  6
VONLAYER
 62
     7
390
11ED1
100
AcDbLine
 10
-16.50000000000023
 20
-19.00000003532811
 30
0.0
 11
-16.50000000000023
 21
-56.25000003532811
 31
0.0
  0
LINE
  5
11E7F
330
11CE4
100
AcDbEntity
  8
PR_DIMENSION
  6
VONLAYER
 62
     7
390
11ED1
100
AcDbLine
 10
57.50000000000013
 20
-19.00000003532811
 30
0.0
 11
57.50000000000013
 21
-56.25000003532811
 31
0.0
  0
TEXT
  5
11E80
330
11CE4
100
AcDbEntity
  8
PR_DIMENSION
  6
VONLAYER
 62
     7
390
11ED1
100
AcDbText
 10
17.99999999999995
 20
-53.00000003532811
 30
0.0
 40
3.0
  1
74
 72
     1
 11
20.49999999999995
 21
-51.50000003532811
 31
0.0
100
AcDbText
 73
     2
  0
INSERT
  5
11E81
330
11CE4
100
AcDbEntity
  8
PR_DIMENSION
  6
VONLAYER
 62
     7
390
11ED1
100
AcDbBlockReference
  2
SLASH_OPEN
 10
-16.50000000000023
 20
-55.00000003532811
 30
0.0
 41
3.0
 42
3.0
 43
3.0
 50
0.0
  0
INSERT
  5
11E82
330
11CE4
100
AcDbEntity
  8
PR_DIMENSION
  6
VONLAYER
 62
     7
390
11ED1
100
AcDbBlockReference
  2
SLASH_OPEN
 10
57.50000000000013
 20
-55.00000003532811
 30
0.0
 41
3.0
 42
3.0
 43
3.0
 50
179.9999999999546
  0
ENDBLK
  5
11E83
330
11CE4
100
AcDbEntity
  8
PR_DIMENSION
  6
VONLAYER
 62
     0
390
11ED1
100
AcDbBlockEnd
  0
BLOCK
  5
11E84
330
11CE5
100
AcDbEntity
  8
PR_DIMENSION
  6
VONLAYER
 62
     0
390
11ED1
100
AcDbBlockBegin
  2
*D33
 70
     1
 10
0.0
 20
0.0
 30
0.0
  3
*D33
  1
*D33
  0
POINT
  5
11E85
330
11CE5
100
AcDbEntity
  8
DEFPOINTS
  6
Continuous
390
11ED1
100
AcDbPoint
 10
-16.49999999999862
 20
-18.00000003532811
 30
0.0
  0
POINT
  5
11E86
330
11CE5
100
AcDbEntity
  8
DEFPOINTS
  6
Continuous
390
11ED1
100
AcDbPoint
 10
57.49999800000023
 20
-18.00000003532811
 30
0.0
  0
POINT
  5
11E87
330
11CE5
100
AcDbEntity
  8
DEFPOINTS
  6
Continuous
390
11ED1
100
AcDbPoint
 10
20.49999900000081
 20
-46.00000003532811
 30
0.0
  0
LINE
  5
11E88
330
11CE5
100
AcDbEntity
  8
PR_DIMENSION
  6
VONLAYER
 62
     7
390
11ED1
100
AcDbLine
 10
-16.49999999999862
 20
-46.00000003532811
 30
0.0
 11
57.49999800000023
 21
-46.00000003532811
 31
0.0
  0
LINE
  5
11E89
330
11CE5
100
AcDbEntity
  8
PR_DIMENSION
  6
VONLAYER
 62
     7
390
11ED1
100
AcDbLine
 10
-16.49999999999862
 20
-19.00000003532811
 30
0.0
 11
-16.49999999999862
 21
-47.25000003532811
 31
0.0
  0
LINE
  5
11E8A
330
11CE5
100
AcDbEntity
  8
PR_DIMENSION
  6
VONLAYER
 62
     7
390
11ED1
100
AcDbLine
 10
57.49999800000023
 20
-19.00000003532811
 30
0.0
 11
57.49999800000023
 21
-47.25000003532811
 31
0.0
  0
TEXT
  5
11E8B
330
11CE5
100
AcDbEntity
  8
PR_DIMENSION
  6
VONLAYER
 62
     7
390
11ED1
100
AcDbText
 10
17.99999900000081
 20
-44.00000003532811
 30
0.0
 40
3.0
  1
74
 72
     1
 11
20.49999900000081
 21
-42.50000003532811
 31
0.0
100
AcDbText
 73
     2
  0
INSERT
  5
11E8C
330
11CE5
100
AcDbEntity
  8
PR_DIMENSION
  6
VONLAYER
 62
     7
390
11ED1
100
AcDbBlockReference
  2
SLASH_OPEN
 10
-16.49999999999862
 20
-46.00000003532811
 30
0.0
 41
3.0
 42
3.0
 43
3.0
 50
0.0
  0
INSERT
  5
11E8D
330
11CE5
100
AcDbEntity
  8
PR_DIMENSION
  6
VONLAYER
 62
     7
390
11ED1
100
AcDbBlockReference
  2
SLASH_OPEN
 10
57.49999800000023
 20
-46.00000003532811
 30
0.0
 41
3.0
 42
3.0
 43
3.0
 50
179.9999999999546
  0
ENDBLK
  5
11E8E
330
11CE5
100
AcDbEntity
  8
PR_DIMENSION
  6
VONLAYER
 62
     0
390
11ED1
100
AcDbBlockEnd
  0
BLOCK
  5
11E8F
330
11CE6
100
AcDbEntity
  8
PR_DIMENSION
  6
VONLAYER
 62
     0
390
11ED1
100
AcDbBlockBegin
  2
*D34
 70
     1
 10
0.0
 20
0.0
 30
0.0
  3
*D34
  1
*D34
  0
POINT
  5
11E90
330
11CE6
100
AcDbEntity
  8
DEFPOINTS
  6
Continuous
390
11ED1
100
AcDbPoint
 10
-16.50000000000023
 20
-18.00000003532811
 30
0.0
  0
POINT
  5
11E91
330
11CE6
100
AcDbEntity
  8
DEFPOINTS
  6
Continuous
390
11ED1
100
AcDbPoint
 10
-0.000000000000135
 20
-18.00000003532811
 30
0.0
  0
POINT
  5
11E92
330
11CE6
100
AcDbEntity
  8
DEFPOINTS
  6
Continuous
390
11ED1
100
AcDbPoint
 10
-8.250000000000181
 20
-37.00000003532811
 30
0.0
  0
LINE
  5
11E93
330
11CE6
100
AcDbEntity
  8
PR_DIMENSION
  6
VONLAYER
 62
     7
390
11ED1
100
AcDbLine
 10
-16.50000000000023
 20
-37.00000003532811
 30
0.0
 11
-0.000000000000135
 21
-37.00000003532811
 31
0.0
  0
LINE
  5
11E94
330
11CE6
100
AcDbEntity
  8
PR_DIMENSION
  6
VONLAYER
 62
     7
390
11ED1
100
AcDbLine
 10
-16.50000000000023
 20
-19.00000003532811
 30
0.0
 11
-16.50000000000023
 21
-38.25000003532811
 31
0.0
  0
LINE
  5
11E95
330
11CE6
100
AcDbEntity
  8
PR_DIMENSION
  6
VONLAYER
 62
     7
390
11ED1
100
AcDbLine
 10
-0.000000000000135
 20
-19.00000003532811
 30
0.0
 11
-0.000000000000135
 21
-38.25000003532811
 31
0.0
  0
TEXT
  5
11E96
330
11CE6
100
AcDbEntity
  8
PR_DIMENSION
  6
VONLAYER
 62
     7
390
11ED1
100
AcDbText
 10
-12.50000000000018
 20
-35.00000003532811
 30
0.0
 40
3.0
  1
16,5
 72
     1
 11
-8.250000000000181
 21
-33.50000003532811
 31
0.0
100
AcDbText
 73
     2
  0
INSERT
  5
11E97
330
11CE6
100
AcDbEntity
  8
PR_DIMENSION
  6
VONLAYER
 62
     7
390
11ED1
100
AcDbBlockReference
  2
SLASH_OPEN
 10
-16.50000000000023
 20
-37.00000003532811
 30
0.0
 41
3.0
 42
3.0
 43
3.0
 50
0.0
  0
INSERT
  5
11E98
330
11CE6
100
AcDbEntity
  8
PR_DIMENSION
  6
VONLAYER
 62
     7
390
11ED1
100
AcDbBlockReference
  2
SLASH_OPEN
 10
-0.000000000000135
 20
-37.00000003532811
 30
0.0
 41
3.0
 42
3.0
 43
3.0
 50
179.9999999999546
  0
ENDBLK
  5
11E99
330
11CE6
100
AcDbEntity
  8
PR_DIMENSION
  6
VONLAYER
 62
     0
390
11ED1
100
AcDbBlockEnd
  0
BLOCK
  5
11E9A
330
11CE7
100
AcDbEntity
  8
PR_DIMENSION
  6
VONLAYER
 62
     0
390
11ED1
100
AcDbBlockBegin
  2
*D35
 70
     1
 10
0.0
 20
0.0
 30
0.0
  3
*D35
  1
*D35
  0
POINT
  5
11E9B
330
11CE7
100
AcDbEntity
  8
DEFPOINTS
  6
Continuous
390
11ED1
100
AcDbPoint
 10
0.0000000000000284
 20
-18.00000003532811
 30
0.0
  0
POINT
  5
11E9C
330
11CE7
100
AcDbEntity
  8
DEFPOINTS
  6
Continuous
390
11ED1
100
AcDbPoint
 10
82.49999999999986
 20
-18.00000003532811
 30
0.0
  0
POINT
  5
11E9D
330
11CE7
100
AcDbEntity
  8
DEFPOINTS
  6
Continuous
390
11ED1
100
AcDbPoint
 10
41.24999999999994
 20
-37.00000003532811
 30
0.0
  0
LINE
  5
11E9E
330
11CE7
100
AcDbEntity
  8
PR_DIMENSION
  6
VONLAYER
 62
     7
390
11ED1
100
AcDbLine
 10
0.0000000000000284
 20
-37.00000003532811
 30
0.0
 11
82.49999999999986
 21
-37.00000003532811
 31
0.0
  0
LINE
  5
11E9F
330
11CE7
100
AcDbEntity
  8
PR_DIMENSION
  6
VONLAYER
 62
     7
390
11ED1
100
AcDbLine
 10
0.0000000000000284
 20
-19.00000003532811
 30
0.0
 11
0.0000000000000284
 21
-38.25000003532811
 31
0.0
  0
LINE
  5
11EA0
330
11CE7
100
AcDbEntity
  8
PR_DIMENSION
  6
VONLAYER
 62
     7
390
11ED1
100
AcDbLine
 10
82.49999999999986
 20
-19.00000003532811
 30
0.0
 11
82.49999999999986
 21
-38.25000003532811
 31
0.0
  0
TEXT
  5
11EA1
330
11CE7
100
AcDbEntity
  8
PR_DIMENSION
  6
VONLAYER
 62
     7
390
11ED1
100
AcDbText
 10
36.49999999999994
 20
-35.00000003532811
 30
0.0
 40
3.0
  1
82,5
 72
     1
 11
41.24999999999994
 21
-33.50000003532811
 31
0.0
100
AcDbText
 73
     2
  0
INSERT
  5
11EA2
330
11CE7
100
AcDbEntity
  8
PR_DIMENSION
  6
VONLAYER
 62
     7
390
11ED1
100
AcDbBlockReference
  2
SLASH_OPEN
 10
0.0000000000000284
 20
-37.00000003532811
 30
0.0
 41
3.0
 42
3.0
 43
3.0
 50
0.0
  0
INSERT
  5
11EA3
330
11CE7
100
AcDbEntity
  8
PR_DIMENSION
  6
VONLAYER
 62
     7
390
11ED1
100
AcDbBlockReference
  2
SLASH_OPEN
 10
82.49999999999986
 20
-37.00000003532811
 30
0.0
 41
3.0
 42
3.0
 43
3.0
 50
179.9999999999546
  0
ENDBLK
  5
11EA4
330
11CE7
100
AcDbEntity
  8
PR_DIMENSION
  6
VONLAYER
 62
     0
390
11ED1
100
AcDbBlockEnd
  0
BLOCK
  5
11EA5
330
11CE8
100
AcDbEntity
  8
PR_DIMENSION
  6
VONLAYER
 62
     0
390
11ED1
100
AcDbBlockBegin
  2
*D36
 70
     1
 10
0.0
 20
0.0
 30
0.0
  3
*D36
  1
*D36
  0
POINT
  5
11EA6
330
11CE8
100
AcDbEntity
  8
DEFPOINTS
  6
Continuous
390
11ED1
100
AcDbPoint
 10
-16.50000000000023
 20
98.00000000000011
 30
0.0
  0
POINT
  5
11EA7
330
11CE8
100
AcDbEntity
  8
DEFPOINTS
  6
Continuous
390
11ED1
100
AcDbPoint
 10
-16.50000000000023
 20
117.9829645184828
 30
0.0
  0
POINT
  5
11EA8
330
11CE8
100
AcDbEntity
  8
DEFPOINTS
  6
Continuous
390
11ED1
100
AcDbPoint
 10
-35.50000000000023
 20
107.9914822592415
 30
0.0
  0
LINE
  5
11EA9
330
11CE8
100
AcDbEntity
  8
PR_DIMENSION
  6
VONLAYER
 62
     7
390
11ED1
100
AcDbLine
 10
-35.50000000000023
 20
98.00000000000011
 30
0.0
 11
-35.50000000000023
 21
117.9829645184828
 31
0.0
  0
LINE
  5
11EAA
330
11CE8
100
AcDbEntity
  8
PR_DIMENSION
  6
VONLAYER
 62
     7
390
11ED1
100
AcDbLine
 10
-17.50000000000023
 20
98.00000000000011
 30
0.0
 11
-36.75000000000023
 21
98.00000000000011
 31
0.0
  0
LINE
  5
11EAB
330
11CE8
100
AcDbEntity
  8
PR_DIMENSION
  6
VONLAYER
 62
     7
390
11ED1
100
AcDbLine
 10
-17.50000000000023
 20
117.9829645184828
 30
0.0
 11
-36.75000000000023
 21
117.9829645184828
 31
0.0
  0
TEXT
  5
11EAC
330
11CE8
100
AcDbEntity
  8
PR_DIMENSION
  6
VONLAYER
 62
     7
390
11ED1
100
AcDbText
 10
-37.5
 20
105.7414822592416
 30
0.0
 40
3.0
  1
20
 50
90.00000000000594
 72
     1
 11
-39.00000000000023
 21
107.9914822592415
 31
0.0
100
AcDbText
 73
     2
  0
INSERT
  5
11EAD
330
11CE8
100
AcDbEntity
  8
PR_DIMENSION
  6
VONLAYER
 62
     7
390
11ED1
100
AcDbBlockReference
  2
SLASH_OPEN
 10
-35.50000000000023
 20
98.00000000000011
 30
0.0
 41
3.0
 42
3.0
 43
3.0
 50
90.00000000000594
  0
INSERT
  5
11EAE
330
11CE8
100
AcDbEntity
  8
PR_DIMENSION
  6
VONLAYER
 62
     7
390
11ED1
100
AcDbBlockReference
  2
SLASH_OPEN
 10
-35.50000000000023
 20
117.9829645184828
 30
0.0
 41
3.0
 42
3.0
 43
3.0
 50
269.9999999999605
  0
ENDBLK
  5
11EAF
330
11CE8
100
AcDbEntity
  8
PR_DIMENSION
  6
VONLAYER
 62
     0
390
11ED1
100
AcDbBlockEnd
  0
BLOCK
  5
11CC4
330
11EB0
100
AcDbEntity
  8
ASSEMBLY
  6
VONLAYER
 62
     0
390
11ED1
100
AcDbBlockBegin
  2
PRJ_INSERT_10_38408385504
 70
     0
 10
0.0
 20
0.0
 30
0.0
  3
PRJ_INSERT_10_38408385504
  1
PRJ_INSERT_10_38408385504
  0
INSERT
  5
11CE9
330
11EB0
100
AcDbEntity
  8
ASSEMBLY
  6
VONLAYER
 62
     1
390
11ED1
100
AcDbBlockReference
  2
BASIS
 10
0.0
 20
0.0
 30
0.0
  0
INSERT
  5
11CEA
330
11EB0
100
AcDbEntity
  8
0
  6
Continuous
 62
     7
390
11ED1
100
AcDbBlockReference
  2
PRJ_INSERT_11_384038518730
 10
0.0
 20
0.0
 30
0.0
 41
-1.0
  0
DIMENSION
  5
11CEC
330
11EB0
100
AcDbEntity
  8
PR_DIMENSION
  6
VONLAYER
 62
     7
390
11ED1
100
AcDbDimension
  2
*D31
 10
33.00000000000062
 20
-64.00000003532811
 30
0.0
 11
33.00000000000062
 21
-60.50000003532811
 31
0.0
 70
    32
 71
     5
 42
0.0
 73
     0
 74
     0
 75
     0
  3
DS_ADVERT
100
AcDbAlignedDimension
 13
-16.49999999999862
 23
-18.00000003532811
 33
0.0
 14
82.49999999999986
 24
-18.00000003532811
 34
0.0
100
AcDbRotatedDimension
  0
DIMENSION
  5
11CEF
330
11EB0
100
AcDbEntity
  8
PR_DIMENSION
  6
VONLAYER
 62
     7
390
11ED1
100
AcDbDimension
  2
*D32
 10
20.49999999999995
 20
-55.00000003532811
 30
0.0
 11
20.49999999999995
 21
-51.50000003532811
 31
0.0
 70
    32
 71
     5
 42
0.0
 73
     0
 74
     0
 75
     0
  3
DS_ADVERT
100
AcDbAlignedDimension
 13
-16.50000000000023
 23
-18.00000003532811
 33
0.0
 14
57.50000000000013
 24
-18.00000003532811
 34
0.0
100
AcDbRotatedDimension
  0
DIMENSION
  5
11CF0
330
11EB0
100
AcDbEntity
  8
PR_DIMENSION
  6
VONLAYER
 62
     7
390
11ED1
100
AcDbDimension
  2
*D33
 10
20.49999900000081
 20
-46.00000003532811
 30
0.0
 11
20.49999900000081
 21
-42.50000003532811
 31
0.0
 70
    32
 71
     5
 42
0.0
 73
     0
 74
     0
 75
     0
  3
DS_ADVERT
100
AcDbAlignedDimension
 13
-16.49999999999862
 23
-18.00000003532811
 33
0.0
 14
57.49999800000023
 24
-18.00000003532811
 34
0.0
100
AcDbRotatedDimension
  0
DIMENSION
  5
11CF1
330
11EB0
100
AcDbEntity
  8
PR_DIMENSION
  6
VONLAYER
 62
     7
390
11ED1
100
AcDbDimension
  2
*D34
 10
-8.250000000000181
 20
-37.00000003532811
 30
0.0
 11
-8.250000000000181
 21
-33.50000003532811
 31
0.0
 70
    32
 71
     5
 42
0.0
 73
     0
 74
     0
 75
     0
  3
DS_ADVERT
100
AcDbAlignedDimension
 13
-16.50000000000023
 23
-18.00000003532811
 33
0.0
 14
-0.000000000000135
 24
-18.00000003532811
 34
0.0
100
AcDbRotatedDimension
  0
DIMENSION
  5
11CF2
330
11EB0
100
AcDbEntity
  8
PR_DIMENSION
  6
VONLAYER
 62
     7
390
11ED1
100
AcDbDimension
  2
*D35
 10
41.24999999999994
 20
-37.00000003532811
 30
0.0
 11
41.24999999999994
 21
-33.50000003532811
 31
0.0
 70
    32
 71
     5
 42
0.0
 73
     0
 74
     0
 75
     0
  3
DS_ADVERT
100
AcDbAlignedDimension
 13
0.0000000000000284
 23
-18.00000003532811
 33
0.0
 14
82.49999999999986
 24
-18.00000003532811
 34
0.0
100
AcDbRotatedDimension
  0
DIMENSION
  5
11CF3
330
11EB0
100
AcDbEntity
  8
PR_DIMENSION
  6
VONLAYER
 62
     7
390
11ED1
100
AcDbDimension
  2
*D36
 10
-35.50000000000023
 20
107.9914822592415
 30
0.0
 11
-39.00000000000023
 21
107.9914822592415
 31
0.0
 70
    32
 71
     5
 42
0.0
 73
     0
 74
     0
 75
     0
 51
90.00000000000594
 53
179.9999999999546
  3
DS_ADVERT
100
AcDbAlignedDimension
 13
-16.50000000000023
 23
98.00000000000011
 33
0.0
 14
-16.50000000000023
 24
117.9829645184828
 34
0.0
 50
90.00000000000594
100
AcDbRotatedDimension
  0
ENDBLK
  5
11EB1
330
11EB0
100
AcDbEntity
  8
ASSEMBLY
  6
VONLAYER
 62
     0
390
11ED1
100
AcDbBlockEnd
  0
BLOCK
  5
BC06000000000179
330
BC06000000000178
100
AcDbEntity
  8
0.00000
100
AcDbBlockBegin
  2
_3692
 70
     0
 10
0.0
 20
-861.92531
 30
0.0
  3
_3692
  1
_3692
  0
LINE
  5
BC0600000000017A
330
BC06000000000178
100
AcDbEntity
  8
0
 62
     0
100
AcDbLine
 10
26.6
 20
-883.32531
 30
0.0
 11
27.1
 21
-882.82531
 31
0.0
  0
LINE
  5
BC0600000000017B
330
BC06000000000178
100
AcDbEntity
  8
0
 62
     0
100
AcDbLine
 10
26.6
 20
-883.32531
 30
0.0
 11
24.5
 21
-883.32531
 31
0.0
  0
LINE
  5
BC0600000000017C
330
BC06000000000178
100
AcDbEntity
  8
0
 62
     0
100
AcDbLine
 10
24.0
 20
-882.82531
 30
0.0
 11
24.5
 21
-883.32531
 31
0.0
  0
LINE
  5
BC0600000000017D
330
BC06000000000178
100
AcDbEntity
  8
0
 62
     0
100
AcDbLine
 10
24.0
 20
-882.82531
 30
0.0
 11
24.0
 21
-880.92531
 31
0.0
  0
LINE
  5
BC0600000000017E
330
BC06000000000178
100
AcDbEntity
  8
0
 62
     0
100
AcDbLine
 10
24.0
 20
-880.92531
 30
0.0
 11
23.5
 21
-880.42531
 31
0.0
  0
LINE
  5
BC0600000000017F
330
BC06000000000178
100
AcDbEntity
  8
0
 62
     0
100
AcDbLine
 10
23.5
 20
-880.42531
 30
0.0
 11
13.7
 21
-880.42531
 31
0.0
  0
LINE
  5
BC06000000000180
330
BC06000000000178
100
AcDbEntity
  8
0
 62
     0
100
AcDbLine
 10
13.2
 20
-879.92531
 30
0.0
 11
13.7
 21
-880.42531
 31
0.0
  0
LINE
  5
BC06000000000181
330
BC06000000000178
100
AcDbEntity
  8
0
 62
     0
100
AcDbLine
 10
13.2
 20
-879.92531
 30
0.0
 11
13.2
 21
-878.92531
 31
0.0
  0
LINE
  5
BC06000000000182
330
BC06000000000178
100
AcDbEntity
  8
0
 62
     0
100
AcDbLine
 10
13.2
 20
-878.92531
 30
0.0
 11
11.7
 21
-878.92531
 31
0.0
  0
LINE
  5
BC06000000000183
330
BC06000000000178
100
AcDbEntity
  8
0
 62
     0
100
AcDbLine
 10
11.7
 20
-878.92531
 30
0.0
 11
11.7
 21
-877.92531
 31
0.0
  0
LINE
  5
BC06000000000184
330
BC06000000000178
100
AcDbEntity
  8
0
 62
     0
100
AcDbLine
 10
11.7
 20
-877.92531
 30
0.0
 11
13.2
 21
-877.92531
 31
0.0
  0
LINE
  5
BC06000000000185
330
BC06000000000178
100
AcDbEntity
  8
0
 62
     0
100
AcDbLine
 10
13.2
 20
-877.92531
 30
0.0
 11
13.2
 21
-875.44419
 31
0.0
  0
LINE
  5
BC06000000000186
330
BC06000000000178
100
AcDbEntity
  8
0
 62
     0
100
AcDbLine
 10
13.2
 20
-875.44419
 30
0.0
 11
12.39915
 21
-874.64334
 31
0.0
  0
LINE
  5
BC06000000000187
330
BC06000000000178
100
AcDbEntity
  8
0
 62
     0
100
AcDbLine
 10
12.39915
 20
-874.64334
 30
0.0
 11
12.24386
 21
-874.06378
 31
0.0
  0
LINE
  5
BC06000000000188
330
BC06000000000178
100
AcDbEntity
  8
0
 62
     0
100
AcDbLine
 10
12.24386
 20
-874.06378
 30
0.0
 11
11.6643
 21
-873.90849
 31
0.0
  0
LINE
  5
BC06000000000189
330
BC06000000000178
100
AcDbEntity
  8
0
 62
     0
100
AcDbLine
 10
11.6643
 20
-873.90849
 30
0.0
 11
10.33467
 21
-872.57886
 31
0.0
  0
LINE
  5
BC0600000000018A
330
BC06000000000178
100
AcDbEntity
  8
0
 62
     0
100
AcDbLine
 10
10.33467
 20
-871.87175
 30
0.0
 11
10.33467
 21
-872.57886
 31
0.0
  0
LINE
  5
BC0600000000018B
330
BC06000000000178
100
AcDbEntity
  8
0
 62
     0
100
AcDbLine
 10
10.33467
 20
-871.87175
 30
0.0
 11
13.2
 21
-869.00642
 31
0.0
  0
LINE
  5
BC0600000000018C
330
BC06000000000178
100
AcDbEntity
  8
0
 62
     0
100
AcDbLine
 10
13.2
 20
-869.00642
 30
0.0
 11
13.2
 21
-866.478
 31
0.0
  0
LINE
  5
BC0600000000018D
330
BC06000000000178
100
AcDbEntity
  8
0
 62
     0
100
AcDbLine
 10
13.2
 20
-866.478
 30
0.0
 11
12.68787
 21
-866.26586
 31
0.0
  0
LINE
  5
BC0600000000018E
330
BC06000000000178
100
AcDbEntity
  8
0
 62
     0
100
AcDbLine
 10
12.68787
 20
-866.26586
 30
0.0
 11
2.29289
 21
-876.66084
 31
0.0
  0
LINE
  5
BC0600000000018F
330
BC06000000000178
100
AcDbEntity
  8
0
 62
     0
100
AcDbLine
 10
2.0
 20
-877.36795
 30
0.0
 11
2.0
 21
-878.33241
 31
0.0
  0
LINE
  5
BC06000000000190
330
BC06000000000178
100
AcDbEntity
  8
0
 62
     0
100
AcDbLine
 10
2.0
 20
-878.33241
 30
0.0
 11
0.85355
 21
-879.47886
 31
0.0
  0
LINE
  5
BC06000000000191
330
BC06000000000178
100
AcDbEntity
  8
0
 62
     0
100
AcDbLine
 10
0.0
 20
-879.12531
 30
0.0
 11
0.85355
 21
-879.47886
 31
0.0
  0
LINE
  5
BC06000000000192
330
BC06000000000178
100
AcDbEntity
  8
0
 62
     0
100
AcDbLine
 10
0.0
 20
-879.12531
 30
0.0
 11
0.0
 21
-878.19637
 31
0.0
  0
LINE
  5
BC06000000000193
330
BC06000000000178
100
AcDbEntity
  8
0
 62
     0
100
AcDbLine
 10
1.46447
 20
-874.66084
 30
0.0
 11
14.05355
 21
-862.07175
 31
0.0
  0
LINE
  5
BC06000000000194
330
BC06000000000178
100
AcDbEntity
  8
0
 62
     0
100
AcDbLine
 10
14.40711
 20
-861.92531
 30
0.0
 11
14.5
 21
-861.92531
 31
0.0
  0
LINE
  5
BC06000000000195
330
BC06000000000178
100
AcDbEntity
  8
0
 62
     0
100
AcDbLine
 10
15.0
 20
-862.42531
 30
0.0
 11
14.5
 21
-861.92531
 31
0.0
  0
LINE
  5
BC06000000000196
330
BC06000000000178
100
AcDbEntity
  8
0
 62
     0
100
AcDbLine
 10
15.0
 20
-862.42531
 30
0.0
 11
15.0
 21
-870.03485
 31
0.0
  0
LINE
  5
BC06000000000197
330
BC06000000000178
100
AcDbEntity
  8
0
 62
     0
100
AcDbLine
 10
15.0
 20
-870.03485
 30
0.0
 11
12.80955
 21
-872.22531
 31
0.0
  0
LINE
  5
BC06000000000198
330
BC06000000000178
100
AcDbEntity
  8
0
 62
     0
100
AcDbLine
 10
12.80955
 20
-872.22531
 30
0.0
 11
15.0
 21
-874.41576
 31
0.0
  0
LINE
  5
BC06000000000199
330
BC06000000000178
100
AcDbEntity
  8
0
 62
     0
100
AcDbLine
 10
15.0
 20
-874.41576
 30
0.0
 11
15.0
 21
-878.12531
 31
0.0
  0
LINE
  5
BC0600000000019A
330
BC06000000000178
100
AcDbEntity
  8
0
 62
     0
100
AcDbLine
 10
15.0
 20
-878.12531
 30
0.0
 11
15.5
 21
-878.62531
 31
0.0
  0
LINE
  5
BC0600000000019B
330
BC06000000000178
100
AcDbEntity
  8
0
 62
     0
100
AcDbLine
 10
15.5
 20
-878.62531
 30
0.0
 11
37.2
 21
-878.62531
 31
0.0
  0
LINE
  5
BC0600000000019C
330
BC06000000000178
100
AcDbEntity
  8
0
 62
     0
100
AcDbLine
 10
37.7
 20
-879.12531
 30
0.0
 11
37.2
 21
-878.62531
 31
0.0
  0
LINE
  5
BC0600000000019D
330
BC06000000000178
100
AcDbEntity
  8
0
 62
     0
100
AcDbLine
 10
37.7
 20
-879.12531
 30
0.0
 11
37.7
 21
-879.72531
 31
0.0
  0
LINE
  5
BC0600000000019E
330
BC06000000000178
100
AcDbEntity
  8
0
 62
     0
100
AcDbLine
 10
37.2
 20
-880.22531
 30
0.0
 11
37.7
 21
-879.72531
 31
0.0
  0
LINE
  5
BC0600000000019F
330
BC06000000000178
100
AcDbEntity
  8
0
 62
     0
100
AcDbLine
 10
37.2
 20
-880.22531
 30
0.0
 11
35.1
 21
-880.22531
 31
0.0
  0
LINE
  5
BC060000000001A0
330
BC06000000000178
100
AcDbEntity
  8
0
 62
     0
100
AcDbLine
 10
35.1
 20
-880.22531
 30
0.0
 11
34.6
 21
-880.72531
 31
0.0
  0
LINE
  5
BC060000000001A1
330
BC06000000000178
100
AcDbEntity
  8
0
 62
     0
100
AcDbLine
 10
34.6
 20
-880.72531
 30
0.0
 11
34.6
 21
-882.82531
 31
0.0
  0
LINE
  5
BC060000000001A2
330
BC06000000000178
100
AcDbEntity
  8
0
 62
     0
100
AcDbLine
 10
34.1
 20
-883.32531
 30
0.0
 11
34.6
 21
-882.82531
 31
0.0
  0
LINE
  5
BC060000000001A3
330
BC06000000000178
100
AcDbEntity
  8
0
 62
     0
100
AcDbLine
 10
34.1
 20
-883.32531
 30
0.0
 11
32.0
 21
-883.32531
 31
0.0
  0
LINE
  5
BC060000000001A4
330
BC06000000000178
100
AcDbEntity
  8
0
 62
     0
100
AcDbLine
 10
31.5
 20
-882.82531
 30
0.0
 11
32.0
 21
-883.32531
 31
0.0
  0
LINE
  5
BC060000000001A5
330
BC06000000000178
100
AcDbEntity
  8
0
 62
     0
100
AcDbLine
 10
31.5
 20
-882.82531
 30
0.0
 11
31.5
 21
-882.22531
 31
0.0
  0
LINE
  5
BC060000000001A6
330
BC06000000000178
100
AcDbEntity
  8
0
 62
     0
100
AcDbLine
 10
32.0
 20
-881.72531
 30
0.0
 11
31.5
 21
-882.22531
 31
0.0
  0
LINE
  5
BC060000000001A7
330
BC06000000000178
100
AcDbEntity
  8
0
 62
     0
100
AcDbLine
 10
32.0
 20
-881.72531
 30
0.0
 11
32.25
 21
-881.72531
 31
0.0
  0
LINE
  5
BC060000000001A8
330
BC06000000000178
100
AcDbEntity
  8
0
 62
     0
100
AcDbLine
 10
32.25
 20
-880.22531
 30
0.0
 11
26.35
 21
-880.22531
 31
0.0
  0
LINE
  5
BC060000000001A9
330
BC06000000000178
100
AcDbEntity
  8
0
 62
     0
100
AcDbLine
 10
26.35
 20
-881.72531
 30
0.0
 11
26.6
 21
-881.72531
 31
0.0
  0
LINE
  5
BC060000000001AA
330
BC06000000000178
100
AcDbEntity
  8
0
 62
     0
100
AcDbLine
 10
27.1
 20
-882.22531
 30
0.0
 11
26.6
 21
-881.72531
 31
0.0
  0
LINE
  5
BC060000000001AB
330
BC06000000000178
100
AcDbEntity
  8
0
 62
     0
100
AcDbLine
 10
27.1
 20
-882.22531
 30
0.0
 11
27.1
 21
-882.82531
 31
0.0
  0
LWPOLYLINE
  5
BC060000000001AC
330
BC06000000000178
100
AcDbEntity
  8
0
100
AcDbPolyline
 90
       37
 70
     0
 43
0.0
 10
2.29289
 20
-876.66084
 10
2.27764
 20
-876.67643
 10
2.26272
 20
-876.69236
 10
2.24816
 20
-876.7086
 10
2.23396
 20
-876.72516
 10
2.22012
 20
-876.74202
 10
2.20665
 20
-876.75918
 10
2.19356
 20
-876.77664
 10
2.18085
 20
-876.79437
 10
2.16853
 20
-876.81238
 10
2.15661
 20
-876.83065
 10
2.14509
 20
-876.84917
 10
2.13397
 20
-876.86795
 10
2.12327
 20
-876.88696
 10
2.11299
 20
-876.9062
 10
2.10313
 20
-876.92566
 10
2.09369
 20
-876.94533
 10
2.08469
 20
-876.9652
 10
2.07612
 20
-876.98526
 10
2.06799
 20
-877.00551
 10
2.06031
 20
-877.02593
 10
2.05307
 20
-877.04651
 10
2.04628
 20
-877.06724
 10
2.03995
 20
-877.08812
 10
2.03407
 20
-877.10913
 10
2.02866
 20
-877.13026
 10
2.0237
 20
-877.15151
 10
2.01921
 20
-877.17286
 10
2.01519
 20
-877.1943
 10
2.01164
 20
-877.21582
 10
2.00856
 20
-877.23742
 10
2.00594
 20
-877.25908
 10
2.00381
 20
-877.28079
 10
2.00214
 20
-877.30254
 10
2.00095
 20
-877.32433
 10
2.00024
 20
-877.34613
 10
2.0
 20
-877.36795
  0
LWPOLYLINE
  5
BC060000000001AD
330
BC06000000000178
100
AcDbEntity
  8
0
100
AcDbPolyline
 90
       37
 70
     0
 43
0.0
 10
1.46447
 20
-874.66084
 10
1.38818
 20
-874.73881
 10
1.31361
 20
-874.81842
 10
1.2408
 20
-874.89964
 10
1.16978
 20
-874.98244
 10
1.10058
 20
-875.06676
 10
1.03323
 20
-875.15257
 10
0.96778
 20
-875.23982
 10
0.90424
 20
-875.32849
 10
0.84265
 20
-875.41852
 10
0.78304
 20
-875.50988
 10
0.72544
 20
-875.60251
 10
0.66987
 20
-875.69637
 10
0.61637
 20
-875.79143
 10
0.56495
 20
-875.88763
 10
0.51564
 20
-875.98493
 10
0.46846
 20
-876.08328
 10
0.42344
 20
-876.18264
 10
0.3806
 20
-876.28296
 10
0.33996
 20
-876.38418
 10
0.30154
 20
-876.48627
 10
0.26535
 20
-876.58918
 10
0.23142
 20
-876.69284
 10
0.19975
 20
-876.79723
 10
0.17037
 20
-876.90228
 10
0.14329
 20
-877.00794
 10
0.11852
 20
-877.11417
 10
0.09607
 20
-877.22092
 10
0.07596
 20
-877.32813
 10
0.05819
 20
-877.43576
 10
0.04278
 20
-877.54374
 10
0.02972
 20
-877.65204
 10
0.01903
 20
-877.76059
 10
0.01071
 20
-877.86936
 10
0.00476
 20
-877.97828
 10
0.00119
 20
-878.0873
 10
0.0
 20
-878.19637
  0
LWPOLYLINE
  5
BC060000000001AE
330
BC06000000000178
100
AcDbEntity
  8
0
100
AcDbPolyline
 90
       37
 70
     0
 43
0.0
 10
14.40711
 20
-861.92531
 10
14.3962
 20
-861.92542
 10
14.3853
 20
-861.92578
 10
14.37441
 20
-861.92638
 10
14.36353
 20
-861.92721
 10
14.35267
 20
-861.92828
 10
14.34184
 20
-861.92958
 10
14.33105
 20
-861.93112
 10
14.32028
 20
-861.9329
 10
14.30956
 20
-861.93491
 10
14.29889
 20
-861.93716
 10
14.28826
 20
-861.93963
 10
14.2777
 20
-861.94234
 10
14.26719
 20
-861.94528
 10
14.25675
 20
-861.94845
 10
14.24639
 20
-861.95184
 10
14.2361
 20
-861.95546
 10
14.22589
 20
-861.9593
 10
14.21577
 20
-861.96337
 10
14.20573
 20
-861.96765
 10
14.1958
 20
-861.97215
 10
14.18596
 20
-861.97687
 10
14.17623
 20
-861.9818
 10
14.16661
 20
-861.98694
 10
14.15711
 20
-861.99229
 10
14.14772
 20
-861.99785
 10
14.13846
 20
-862.00361
 10
14.12932
 20
-862.00957
 10
14.12032
 20
-862.01573
 10
14.11145
 20
-862.02208
 10
14.10273
 20
-862.02863
 10
14.09415
 20
-862.03536
 10
14.08571
 20
-862.04228
 10
14.07743
 20
-862.04939
 10
14.06931
 20
-862.05667
 10
14.06135
 20
-862.06412
 10
14.05355
 20
-862.07175
  0
LWPOLYLINE
  5
BC060000000001AF
330
BC06000000000178
100
AcDbEntity
  8
0
100
AcDbPolyline
 90
       37
 70
     0
 43
0.0
 10
32.25
 20
-881.72531
 10
32.31537
 20
-881.72245
 10
32.38024
 20
-881.71391
 10
32.44411
 20
-881.69975
 10
32.50652
 20
-881.68007
 10
32.56696
 20
-881.65504
 10
32.625
 20
-881.62482
 10
32.68018
 20
-881.58967
 10
32.73209
 20
-881.54984
 10
32.78033
 20
-881.50564
 10
32.82453
 20
-881.4574
 10
32.86436
 20
-881.40549
 10
32.89952
 20
-881.35031
 10
32.92973
 20
-881.29227
 10
32.95477
 20
-881.23182
 10
32.97444
 20
-881.16942
 10
32.98861
 20
-881.10554
 10
32.99715
 20
-881.04067
 10
33.0
 20
-880.97531
 10
32.99715
 20
-880.90994
 10
32.98861
 20
-880.84507
 10
32.97444
 20
-880.78119
 10
32.95477
 20
-880.71879
 10
32.92973
 20
-880.65834
 10
32.89952
 20
-880.60031
 10
32.86436
 20
-880.54512
 10
32.82453
 20
-880.49321
 10
32.78033
 20
-880.44498
 10
32.73209
 20
-880.40077
 10
32.68018
 20
-880.36094
 10
32.625
 20
-880.32579
 10
32.56696
 20
-880.29557
 10
32.50652
 20
-880.27054
 10
32.44411
 20
-880.25086
 10
32.38024
 20
-880.2367
 10
32.31537
 20
-880.22816
 10
32.25
 20
-880.22531
  0
LWPOLYLINE
  5
BC060000000001B0
330
BC06000000000178
100
AcDbEntity
  8
0
100
AcDbPolyline
 90
       37
 70
     0
 43
0.0
 10
26.35
 20
-880.22531
 10
26.28463
 20
-880.22816
 10
26.21976
 20
-880.2367
 10
26.15589
 20
-880.25086
 10
26.09348
 20
-880.27054
 10
26.03304
 20
-880.29557
 10
25.975
 20
-880.32579
 10
25.91982
 20
-880.36094
 10
25.86791
 20
-880.40077
 10
25.81967
 20
-880.44498
 10
25.77547
 20
-880.49321
 10
25.73564
 20
-880.54512
 10
25.70048
 20
-880.60031
 10
25.67027
 20
-880.65834
 10
25.64523
 20
-880.71879
 10
25.62556
 20
-880.78119
 10
25.61139
 20
-880.84507
 10
25.60285
 20
-880.90994
 10
25.6
 20
-880.97531
 10
25.60285
 20
-881.04067
 10
25.61139
 20
-881.10554
 10
25.62556
 20
-881.16942
 10
25.64523
 20
-881.23182
 10
25.67027
 20
-881.29227
 10
25.70048
 20
-881.35031
 10
25.73564
 20
-881.40549
 10
25.77547
 20
-881.4574
 10
25.81967
 20
-881.50564
 10
25.86791
 20
-881.54984
 10
25.91982
 20
-881.58967
 10
25.975
 20
-881.62482
 10
26.03304
 20
-881.65504
 10
26.09348
 20
-881.68007
 10
26.15589
 20
-881.69975
 10
26.21976
 20
-881.71391
 10
26.28463
 20
-881.72245
 10
26.35
 20
-881.72531
  0
ENDBLK
  5
BC060000000001B1
330
BC06000000000178
100
AcDbEntity
  8
0
100
AcDbBlockEnd
  0
BLOCK
  5
BC060000000001B4
330
BC060000000001B3
100
AcDbEntity
  8
0.00000
100
AcDbBlockBegin
  2
_500B
 70
     0
 10
0.0
 20
-12.0
 30
0.0
  3
_500B
  1
_500B
  0
LINE
  5
BC060000000001B5
330
BC060000000001B3
100
AcDbEntity
  8
0
 62
     0
100
AcDbLine
 10
3.5
 20
-13.0
 30
0.0
 11
3.5
 21
-24.0
 31
0.0
  0
LINE
  5
BC060000000001B6
330
BC060000000001B3
100
AcDbEntity
  8
0
 62
     0
100
AcDbLine
 10
1.75
 20
-13.0
 30
0.0
 11
0.0
 21
-24.0
 31
0.0
  0
LINE
  5
BC060000000001B7
330
BC060000000001B3
100
AcDbEntity
  8
0
 62
     0
100
AcDbLine
 10
0.7
 20
-24.0
 30
0.0
 11
2.1
 21
-13.0
 31
0.0
  0
LINE
  5
BC060000000001B8
330
BC060000000001B3
100
AcDbEntity
  8
0
 62
     0
100
AcDbLine
 10
2.45
 20
-13.0
 30
0.0
 11
1.4
 21
-24.0
 31
0.0
  0
LINE
  5
BC060000000001B9
330
BC060000000001B3
100
AcDbEntity
  8
0
 62
     0
100
AcDbLine
 10
2.1
 20
-24.0
 30
0.0
 11
2.8
 21
-13.0
 31
0.0
  0
LINE
  5
BC060000000001BA
330
BC060000000001B3
100
AcDbEntity
  8
0
 62
     0
100
AcDbLine
 10
3.15
 20
-13.0
 30
0.0
 11
2.8
 21
-24.0
 31
0.0
  0
LINE
  5
BC060000000001BB
330
BC060000000001B3
100
AcDbEntity
  8
0
 62
     0
100
AcDbLine
 10
3.85
 20
-13.0
 30
0.0
 11
4.2
 21
-24.0
 31
0.0
  0
LINE
  5
BC060000000001BC
330
BC060000000001B3
100
AcDbEntity
  8
0
 62
     0
100
AcDbLine
 10
4.9
 20
-24.0
 30
0.0
 11
4.2
 21
-13.0
 31
0.0
  0
LINE
  5
BC060000000001BD
330
BC060000000001B3
100
AcDbEntity
  8
0
 62
     0
100
AcDbLine
 10
4.55
 20
-13.0
 30
0.0
 11
5.6
 21
-24.0
 31
0.0
  0
LINE
  5
BC060000000001BE
330
BC060000000001B3
100
AcDbEntity
  8
0
 62
     0
100
AcDbLine
 10
4.9
 20
-13.0
 30
0.0
 11
6.3
 21
-24.0
 31
0.0
  0
LINE
  5
BC060000000001BF
330
BC060000000001B3
100
AcDbEntity
  8
0
 62
     0
100
AcDbLine
 10
7.0
 20
-24.0
 30
0.0
 11
5.25
 21
-13.0
 31
0.0
  0
LINE
  5
BC060000000001C0
330
BC060000000001B3
100
AcDbEntity
  8
0
 62
     0
100
AcDbLine
 10
0.0
 20
-13.0
 30
0.0
 11
7.0
 21
-13.0
 31
0.0
  0
LINE
  5
BC060000000001C1
330
BC060000000001B3
100
AcDbEntity
  8
0
 62
     0
100
AcDbLine
 10
7.0
 20
-13.0
 30
0.0
 11
7.0
 21
-12.0
 31
0.0
  0
LINE
  5
BC060000000001C2
330
BC060000000001B3
100
AcDbEntity
  8
0
 62
     0
100
AcDbLine
 10
7.0
 20
-12.0
 30
0.0
 11
0.0
 21
-12.0
 31
0.0
  0
LINE
  5
BC060000000001C3
330
BC060000000001B3
100
AcDbEntity
  8
0
 62
     0
100
AcDbLine
 10
0.0
 20
-12.0
 30
0.0
 11
0.0
 21
-13.0
 31
0.0
  0
ENDBLK
  5
BC060000000001C4
330
BC060000000001B3
100
AcDbEntity
  8
0
100
AcDbBlockEnd
  0
ENDSEC
  0
SECTION
  2
ENTITIES
  0
INSERT
  5
11CB6
330
11EBF
100
AcDbEntity
  8
ASSEMBLY
  6
VONLAYER
 62
     1
390
11ED1
100
AcDbBlockReference
  2
BASIS
 10
0.0
 20
0.0
 30
0.0
  0
INSERT
  5
11CC3
330
11EBF
100
AcDbEntity
  8
ASSEMBLY
  6
Continuous
 62
     7
390
11ED1
100
AcDbBlockReference
  2
INSERT_MULTIPOS_0
 10
0.0
 20
0.0
 30
0.0
 41
-1.0
 42
-1.0
  0
INSERT
  5
BC06000000000088
330
11EBF
100
AcDbEntity
  8
ASSEMBLY
  6
VONLAYER
 62
     1
390
11ED1
100
AcDbBlockReference
  2
BASIS
 10
0.0
 20
0.0
 30
0.0
  0
DIMENSION
  5
BC0600000000008A
330
11EBF
100
AcDbEntity
  8
PR_DIMENSION
  6
VONLAYER
 62
     7
390
11ED1
100
AcDbDimension
  2
*D31
 10
33.00000000000062
 20
-64.00000003532811
 30
0.0
 11
33.00000000000062
 21
-60.50000003532811
 31
0.0
 71
     5
 42
0.0
 73
     0
 74
     0
 75
     0
  3
DS_ADVERT
100
AcDbAlignedDimension
 13
-16.49999999999862
 23
-18.00000003532811
 33
0.0
 14
82.49999999999986
 24
-18.00000003532811
 34
0.0
100
AcDbRotatedDimension
1001
ACAD
1000
DSTYLE
1002
{
1070
    40
1040
1.0
1002
}
  0
DIMENSION
  5
BC0600000000008B
330
11EBF
100
AcDbEntity
  8
PR_DIMENSION
  6
VONLAYER
 62
     7
390
11ED1
100
AcDbDimension
  2
*D32
 10
20.49999999999995
 20
-55.00000003532811
 30
0.0
 11
20.49999999999995
 21
-51.50000003532811
 31
0.0
 71
     5
 42
0.0
 73
     0
 74
     0
 75
     0
  3
DS_ADVERT
100
AcDbAlignedDimension
 13
-16.50000000000023
 23
-18.00000003532811
 33
0.0
 14
57.50000000000013
 24
-18.00000003532811
 34
0.0
100
AcDbRotatedDimension
1001
ACAD
1000
DSTYLE
1002
{
1070
    40
1040
1.0
1002
}
  0
DIMENSION
  5
BC0600000000008C
330
11EBF
100
AcDbEntity
  8
PR_DIMENSION
  6
VONLAYER
 62
     7
390
11ED1
100
AcDbDimension
  2
*D33
 10
20.49999900000081
 20
-46.00000003532811
 30
0.0
 11
20.49999900000081
 21
-42.50000003532811
 31
0.0
 71
     5
 42
0.0
 73
     0
 74
     0
 75
     0
  3
DS_ADVERT
100
AcDbAlignedDimension
 13
-16.49999999999862
 23
-18.00000003532811
 33
0.0
 14
57.49999800000023
 24
-18.00000003532811
 34
0.0
100
AcDbRotatedDimension
1001
ACAD
1000
DSTYLE
1002
{
1070
    40
1040
1.0
1002
}
  0
DIMENSION
  5
BC0600000000008D
330
11EBF
100
AcDbEntity
  8
PR_DIMENSION
  6
VONLAYER
 62
     7
390
11ED1
100
AcDbDimension
  2
*D34
 10
-8.250000000000181
 20
-37.00000003532811
 30
0.0
 11
-8.250000000000181
 21
-33.50000003532811
 31
0.0
 71
     5
 42
0.0
 73
     0
 74
     0
 75
     0
  3
DS_ADVERT
100
AcDbAlignedDimension
 13
-16.50000000000023
 23
-18.00000003532811
 33
0.0
 14
-0.000000000000135
 24
-18.00000003532811
 34
0.0
100
AcDbRotatedDimension
1001
ACAD
1000
DSTYLE
1002
{
1070
    40
1040
1.0
1002
}
  0
DIMENSION
  5
BC0600000000008E
330
11EBF
100
AcDbEntity
  8
PR_DIMENSION
  6
VONLAYER
 62
     7
390
11ED1
100
AcDbDimension
  2
*D35
 10
41.24999999999994
 20
-37.00000003532811
 30
0.0
 11
41.24999999999994
 21
-33.50000003532811
 31
0.0
 71
     5
 42
0.0
 73
     0
 74
     0
 75
     0
  3
DS_ADVERT
100
AcDbAlignedDimension
 13
0.0000000000000284
 23
-18.00000003532811
 33
0.0
 14
82.49999999999986
 24
-18.00000003532811
 34
0.0
100
AcDbRotatedDimension
1001
ACAD
1000
DSTYLE
1002
{
1070
    40
1040
1.0
1002
}
  0
DIMENSION
  5
BC0600000000008F
330
11EBF
100
AcDbEntity
  8
PR_DIMENSION
  6
VONLAYER
 62
     7
390
11ED1
100
AcDbDimension
  2
*D36
 10
-35.50000000000023
 20
107.9914822592415
 30
0.0
 11
-39.00000000000023
 21
107.9914822592415
 31
0.0
 71
     5
 42
0.0
 73
     0
 74
     0
 75
     0
 51
90.00000000000594
 53
179.9999999999546
  3
DS_ADVERT
100
AcDbAlignedDimension
 13
-16.50000000000023
 23
98.00000000000011
 33
0.0
 14
-16.50000000000023
 24
117.9829645184828
 34
0.0
 50
90.00000000000594
100
AcDbRotatedDimension
1001
ACAD
1000
DSTYLE
1002
{
1070
    40
1040
1.0
1002
}
  0
POINT
  5
BC060000000000B5
330
11EBF
100
AcDbEntity
  8
ASSEMBLY
  6
Continuous
 62
    10
390
11ED1
100
AcDbPoint
 10
-3.5
 20
-8.0
 30
0.0
 50
180.0
  0
POINT
  5
BC060000000000B6
330
11EBF
100
AcDbEntity
  8
ASSEMBLY
  6
Continuous
 62
    11
390
11ED1
100
AcDbPoint
 10
-3.499997102962652
 20
117.5000007762391
 30
0.0
 50
180.0
  0
POINT
  5
BC060000000000B7
330
11EBF
100
AcDbEntity
  8
ASSEMBLY
  6
Continuous
 62
   161
390
11ED1
100
AcDbPoint
 10
57.49999800000023
 20
12.99999999999983
 30
0.0
 50
180.0
  0
POINT
  5
BC060000000000B8
330
11EBF
100
AcDbEntity
  8
ASSEMBLY
  6
Continuous
 62
   160
390
11ED1
100
AcDbPoint
 10
56.50000000000011
 20
98.00000000001069
 30
0.0
 50
180.0
  0
INSERT
  5
BC060000000000B9
330
11EBF
100
AcDbEntity
  8
DIM_PROFILE
390
11ED1
100
AcDbBlockReference
  2
DIM_FLUEGEL_AUSSEN_OBEN
 10
-16.49999999999862
 20
117.9829645184828
 30
0.0
 41
-1.0
  0
INSERT
  5
BC060000000000BA
330
11EBF
100
AcDbEntity
  8
DIM_PROFILE
390
11ED1
100
AcDbBlockReference
  2
DIM_FLUEGEL_INNEN_OBEN
 10
57.50000000000013
 20
98.00000000000011
 30
0.0
 41
-1.0
  0
INSERT
  5
BC060000000000BB
330
11EBF
100
AcDbEntity
  8
DIM_PROFILE
390
11ED1
100
AcDbBlockReference
  2
DIM_FLUEGEL_INNEN_UNTEN
 10
-16.50000000000023
 20
-7.999999999999943
 30
0.0
 41
-1.0
  0
INSERT
  5
BC060000000000BC
330
11EBF
100
AcDbEntity
  8
ASSEMBLY
390
11ED1
100
AcDbBlockReference
  2
BASIS
 10
0.0
 20
0.0
 30
0.0
 41
-1.0
  0
INSERT
  5
BC060000000000BD
330
11EBF
100
AcDbEntity
  8
ASSEMBLY
390
11ED1
100
AcDbBlockReference
  2
GLASLEISTE
 10
57.50000000000013
 20
98.00000000000011
 30
0.0
  0
INSERT
  5
BC060000000000BE
330
11EBF
100
AcDbEntity
  8
ASSEMBLY
390
11ED1
100
AcDbBlockReference
  2
VERKLOTZUNG
 10
57.50000000000013
 20
98.00000000000011
 30
0.0
  0
INSERT
  5
BC060000000000BF
330
11EBF
100
AcDbEntity
  8
ASSEMBLY
390
11ED1
100
AcDbBlockReference
  2
STAHL1
 10
21.8045633972645
 20
88.70792953916441
 30
0.0
 41
-1.0
  0
INSERT
  5
BC060000000000C0
330
11EBF
100
AcDbEntity
  8
ASSEMBLY
390
11ED1
100
AcDbBlockReference
  2
ALU-VSS
 10
-3.49991803773753
 20
111.9114852853793
 30
0.0
  0
INSERT
  5
BC060000000000C1
330
11EBF
100
AcDbEntity
  8
ASSEMBLY
390
11ED1
100
AcDbBlockReference
  2
DICHTUNG_GD
 10
-3.49991803773753
 20
111.9114852853793
 30
0.0
  0
INSERT
  5
BC060000000000C2
330
11EBF
100
AcDbEntity
  8
ASSEMBLY
390
11ED1
100
AcDbBlockReference
  2
DICHTUNG_AD
 10
-3.5
 20
-2.250000214472749
 30
0.0
 41
-1.0
 50
180.0
  0
INSERT
  5
BC060000000000C3
330
11EBF
100
AcDbEntity
  8
DIM_PROFILE
390
11ED1
100
AcDbBlockReference
  2
DIM_FLUEGEL_AUSSEN_UNTEN
 10
57.49999800000023
 20
12.99999999999983
 30
0.0
 41
-1.0
  0
LWPOLYLINE
  5
BC060000000000D3
330
11EBF
100
AcDbEntity
  8
PVC_OUTSIDE
390
11ED1
100
AcDbPolyline
 90
       78
 70
     1
 43
0.0
 10
57.50000000000011
 20
97.00000000000011
 42
0.4142135623730959
 10
56.50000000000011
 20
98.00000000000011
 10
54.99999999999996
 20
98.00000000000011
 10
54.0000100000002
 20
96.20001800000063
 10
54.0000100000002
 20
93.2000000000001
 10
54.70000000000005
 20
93.20000000000005
 10
54.70000000000005
 20
90.70000000000005
 10
54.19999999999987
 20
90.19999999999993
 10
48.58543000000002
 20
90.19999999999993
 42
-0.7372684837161658
 10
49.23014112801636
 20
92.49960029890576
 10
50.20000000000005
 20
98.00000000000011
 10
46.25170000000003
 20
98.00000000000011
 10
46.61040000000003
 20
93.9000000000002
 10
11.50000289703789
 20
93.9000000000002
 10
-3.499997102962759
 20
90.71170000000012
 10
-3.499997102962652
 20
109.1614852296141
 10
-4.499997102962674
 20
110.161485229614
 10
-4.999997102962652
 20
110.161485229614
 10
-4.999997102962645
 20
108.661485229614
 10
-7.499997102962638
 20
108.661485229614
 42
-0.4142135623731034
 10
-7.999997102962652
 20
109.161485229614
 10
-7.999997102962652
 20
113.9739741583312
 42
-0.3394542588633785
 10
-7.629406625513909
 20
114.4569370714757
 10
-4.999997102962652
 20
115.1614852296141
 10
-4.999997102962652
 20
113.6614852296141
 10
-4.499997102962631
 20
113.6614852296141
 10
-3.499997102962659
 20
114.6614852296141
 10
-3.499997102962652
 20
117.5000007762391
 42
0.4931434347918882
 10
-4.129403531233834
 20
117.9829645184828
 10
-12.05287713925302
 20
115.8599305732195
 42
0.3394560451446166
 10
-16.49999999999864
 20
110.0643656662945
 10
-16.50000000000023
 20
-5.499999999999943
 42
0.4142135623730991
 10
-14.00000000000023
 20
-7.999999999999972
 10
-3.5
 20
-8.0
 10
-3.5
 20
-4.999999999999972
 10
-4.5
 20
-3.999999999999972
 10
-5.0
 20
-3.999999999999972
 10
-5.0
 20
-5.600000000000108
 10
-7.5
 20
-5.600000000000108
 42
-0.4142135623730951
 10
-8.0
 20
-5.100000000000108
 10
-8.0
 20
0.5
 42
-0.4142135623730951
 10
-7.5
 20
1.0
 10
-5.000000000000007
 20
1.0
 10
-5.0
 20
-0.5
 10
-4.500000000000028
 20
-0.5
 10
-3.499999999999993
 20
0.499990000099956
 10
-3.500000000000007
 20
12.0
 10
0.8999999999995225
 20
12.00000000000011
 10
0.8999999999995225
 20
13.10000000000002
 10
4.899999999999856
 20
13.10000000000002
 10
4.899999999999864
 20
14.20000000000005
 10
6.899999999999864
 20
14.20000000000005
 10
6.899999999999871
 20
16.89999999999998
 10
4.899999999999714
 20
16.90000000000009
 42
-0.4142135623730804
 10
4.39999999999975
 20
17.40000000000009
 10
4.399999999999864
 20
23.0
 42
-0.4142135623731096
 10
4.899999999999842
 20
23.5
 10
12.49999999999988
 20
23.5
 10
12.99999999999989
 20
24.0
 10
13.49999999999992
 20
23.5
 10
21.10000000000002
 20
23.5
 42
-0.4142135623730951
 10
21.60000000000002
 20
23.0
 10
21.60000000000002
 20
17.40000000000009
 42
-0.4142135623730951
 10
21.10000000000002
 20
16.90000000000009
 10
19.10000000000002
 20
16.90000000000009
 10
19.10000000000002
 20
14.2000000000001
 10
21.09999999999991
 20
14.20000000000005
 10
21.09999999999991
 20
13.10000000000002
 10
25.09999999999945
 20
13.10000000000002
 10
25.09999999999945
 20
12.0
 10
28.45288728228975
 20
11.99999999999994
 10
43.49999999999909
 20
15.19830107849504
 10
43.49999999999898
 20
13.99999999999977
 10
44.99999999999898
 20
13.99999999999977
 10
44.99999999999909
 20
17.99999999999977
 10
54.49999999999909
 20
17.99999999999977
 10
54.49999999999886
 20
12.99999999999977
 10
57.50000000000011
 20
12.99999999999983
  0
INSERT
  5
BC060000000000D4
330
11EBF
100
AcDbEntity
  8
0
  6
Continuous
 62
     7
390
11ED1
100
AcDbBlockReference
  2
PRJ_INSERT_18_384038131086
 10
-3.5
 20
-2.250000214472732
 30
0.0
 41
-1.0
 50
180.0
  0
INSERT
  5
BC060000000000D6
330
11EBF
100
AcDbEntity
  8
0
  6
Continuous
 62
     7
390
11ED1
100
AcDbBlockReference
  2
PRJ_INSERT_16_384038226484
 10
57.50000000000011
 20
98.00000000000011
 30
0.0
 50
0.000000000000007
  0
INSERT
  5
BC060000000000D7
330
11EBF
100
AcDbEntity
  8
0
  6
Continuous
 62
     7
390
11ED1
100
AcDbBlockReference
  2
PRJ_INSERT_15_384038320614
 10
-3.499918037737529
 20
111.9114852853793
 30
0.0
 50
0.000000000000007
  0
INSERT
  5
BC060000000000D9
330
11EBF
100
AcDbEntity
  8
0
  6
Continuous
 62
     7
390
11ED1
100
AcDbBlockReference
  2
PRJ_INSERT_12_384038418086
 10
57.50000000000011
 20
98.00000000000006
 30
0.0
 50
0.000000000000007
  0
INSERT
  5
BC0600000000010E
330
11EBF
100
AcDbEntity
  8
ASSEMBLY
390
11ED1
100
AcDbBlockReference
  2
BASIS
 10
0.0
 20
0.0
 30
0.0
 41
-1.0
  0
INSERT
  5
BC0600000000010F
330
11EBF
100
AcDbEntity
  8
ASSEMBLY
390
11ED1
100
AcDbBlockReference
  2
FLUEGEL
 10
0.0
 20
0.0
 30
0.0
 41
-1.0
  0
INSERT
  5
BC06000000000110
330
11EBF
100
AcDbEntity
  8
ASSEMBLY
390
11ED1
100
AcDbBlockReference
  2
DIM_RAHMEN_INNEN_OBEN
 10
0.0000000000000213
 20
2.000000000000114
 30
0.0
 41
-1.0
  0
INSERT
  5
BC06000000000111
330
11EBF
100
AcDbEntity
  8
ASSEMBLY
390
11ED1
100
AcDbBlockReference
  2
DIM_RAHMEN_INNEN_UNTEN
 10
-0.000000000000135
 20
-18.0
 30
0.0
 41
-1.0
  0
INSERT
  5
BC06000000000112
330
11EBF
100
AcDbEntity
  8
ASSEMBLY
390
11ED1
100
AcDbBlockReference
  2
VERBREITERUNG
 10
82.49999927187392
 20
-18.00245582712647
 30
0.0
 41
-1.0
  0
INSERT
  5
BC06000000000113
330
11EBF
100
AcDbEntity
  8
ASSEMBLY
390
11ED1
100
AcDbBlockReference
  2
DIM_RAHMEN_AUSSEN_OBEN
 10
82.49999927187392
 20
1.99754417287356
 30
0.0
 41
-1.0
  0
INSERT
  5
BC06000000000114
330
11EBF
100
AcDbEntity
  8
ASSEMBLY
390
11ED1
100
AcDbBlockReference
  2
DIM_RAHMEN_AUSSEN_UNTEN
 10
82.49999999999986
 20
-18.00000003532806
 30
0.0
 41
-1.0
  0
LWPOLYLINE
  5
BC06000000000116
330
11EBF
100
AcDbEntity
  8
PVC_OUTSIDE
390
11ED1
100
AcDbPolyline
 90
      140
 70
     1
 43
0.0
 10
28.04999999999985
 20
1.749999964671971
 10
28.04999999999985
 20
1.649999964672006
 10
27.19999999999985
 20
1.649999964672006
 10
27.19999999999983
 20
1.749999964671971
 42
0.4142135623730867
 10
26.94999999999985
 20
1.999999964672
 10
26.59999999999986
 20
1.999999964671971
 42
0.4142135623731117
 10
26.34999999999986
 20
1.749999964671971
 10
26.34999999999986
 20
1.649999964672006
 10
25.49999999999986
 20
1.649999964672006
 10
25.49999999999989
 20
1.749999964671971
 42
0.414213562373095
 10
25.24999999999986
 20
1.999999964672
 10
24.89999999999987
 20
1.999999964671971
 42
0.4142135623731117
 10
24.64999999999987
 20
1.749999964671971
 10
24.64999999999987
 20
1.649999964672006
 10
23.79999999999988
 20
1.649999964672006
 10
23.79999999999985
 20
1.749999964671971
 42
0.4142135623731033
 10
23.54999999999985
 20
1.999999964671971
 10
22.99999999999984
 20
1.999999964671971
 42
0.4142135623730992
 10
22.49999999999986
 20
1.499999964672
 10
22.49999999999984
 20
-0.2000000353280171
 42
0.4142135623731159
 10
22.99999999999984
 20
-0.7000000353279887
 10
23.29289321881331
 20
-0.7000000353280171
 42
0.1989123673796368
 10
23.64644660940659
 20
-0.5535534259212653
 10
24.14644660940656
 20
-0.0535534259213222
 42
-0.6681786379193104
 10
24.99999999999986
 20
-0.4071068165145704
 10
24.99999999999984
 20
-2.294271560465958
 42
-0.0738119385803002
 10
24.98706563652173
 20
-2.381411220370509
 10
24.78801723427643
 20
-3.037139695232511
 42
-0.330302971774036
 10
24.50095159775453
 20
-3.250000035327943
 10
22.99999999999984
 20
-3.250000035327915
 42
0.4142135623731075
 10
22.49999999999986
 20
-3.750000035327943
 10
22.49999999999986
 20
-4.250000035327915
 42
0.4142135623730409
 10
22.99999999999975
 20
-4.750000035327915
 10
23.86349011676095
 20
-4.750000035328114
 42
-0.503416922637362
 10
24.15055575328277
 20
-5.137139695232676
 10
24.02324519485411
 20
-5.556540993462548
 42
-0.3303029717740548
 10
23.42519178543353
 20
-6.000000035328
 10
7.499999999999865
 20
-6.000000035328
 42
0.414213562373095
 10
6.999999999999865
 20
-6.500000035328
 10
6.999999999999837
 20
-8.000000035328
 42
-0.414213562373095
 10
6.499999999999893
 20
-8.500000035328
 10
2.500000000000234
 20
-8.500000035328
 42
-0.414213562373095
 10
2.000000000000234
 20
-8.000000035328
 10
2.000000000000234
 20
-7.500000035328057
 42
-0.4142135623731366
 10
2.500000000000291
 20
-7.000000035328057
 10
3.500000000000178
 20
-7.000000035328199
 42
0.9999999999999857
 10
3.49999999999995
 20
-6.000000035328114
 10
-0.000000000000135
 20
-6.000000035328
 10
-0.000000000000135
 20
-13.59999999999998
 10
0.2999999999998764
 20
-13.89999999999999
 10
-0.000000000000135
 20
-14.19999999999995
 10
-0.000000000000135
 20
-17.49999999999999
 42
0.414213562373095
 10
0.499999999999865
 20
-17.99999999999999
 10
3.999999988246266
 20
-17.99999999999999
 10
3.999999988246266
 20
-13.99999999999996
 10
3.000027151448599
 20
-13.99999999999996
 10
3.000027151448599
 20
-11.50000000000001
 42
-0.414213562373095
 10
4.00002715144857
 20
-10.50000000000001
 10
7.930698750965838
 20
-10.50000000000001
 42
-0.4663076581550175
 10
8.915506503978015
 20
-11.673648177667
 10
7.903472908037379
 20
-17.4131759111665
 42
0.4663076581549983
 10
8.395876784543482
 20
-17.99999999999999
 10
31.14772500617153
 20
-18.00000000000001
 42
0.2446984432290342
 10
31.39347061945825
 20
-17.87207293090533
 10
32.06274669424122
 20
-16.91624763874383
 42
0.6100294174932317
 10
31.89999999999987
 20
-16.60000000000001
 10
31.29999999999988
 20
-16.60000000000001
 10
31.29999999999988
 20
-12.80000003532798
 42
-0.414213562373102
 10
31.59999999999989
 20
-12.50000003532803
 10
33.59999999999989
 20
-12.50000003532803
 42
-0.4142135623730925
 10
34.59999999999986
 20
-13.50000003532803
 10
34.59999999999986
 20
-14.63186785245456
 42
-0.5205670505517563
 10
34.33159597133471
 20
-14.81980637661174
 10
33.56840402866499
 20
-14.54202722644813
 42
0.8025848516715943
 10
33.35857864376255
 20
-14.87138710684265
 10
34.39429835343447
 20
-15.90710681651457
 42
0.1989123673796591
 10
35.10140513462103
 20
-16.20000003532802
 10
35.29999999999988
 20
-16.20000003532799
 42
0.4142135623730951
 10
36.29999999999988
 20
-15.20000003532802
 10
36.29999999999985
 20
-0.0000000353279717
 42
-0.414213562373095
 10
36.59999999999983
 20
0.2999999646720113
 10
38.79999999999988
 20
0.2999999646719829
 42
-0.414213562373095
 10
39.79999999999985
 20
-0.7000000353279887
 10
39.79999999999988
 20
-1.845407782507792
 42
-0.5205670505517428
 10
39.53159597133473
 20
-2.033346306664967
 10
38.46840402866489
 20
-1.64637608622148
 42
0.8025848516715943
 10
38.25857864376247
 20
-1.975735966616
 10
39.64142135623718
 20
-3.358578679090712
 42
-0.8025848516716141
 10
39.43159597133474
 20
-3.687938559485175
 10
38.48121249174498
 20
-3.342027261776153
 42
0.8025848516716012
 10
38.27138710684253
 20
-3.671387142170673
 10
39.1071067811864
 20
-4.507106816514565
 42
0.1989123673796591
 10
39.81421356237295
 20
-4.800000035328011
 10
40.19999999999985
 20
-4.80000003532804
 42
0.414213562373095
 10
41.19999999999985
 20
-3.800000035328011
 10
41.19999999999985
 20
1.499999964672
 42
0.414213562373095
 10
40.69999999999985
 20
1.999999964672
 10
40.19999999999985
 20
1.999999964672
 42
0.41421356237312
 10
39.94999999999985
 20
1.749999964671971
 10
39.94999999999985
 20
1.649999964672006
 10
39.09999999999986
 20
1.649999964672006
 10
39.09999999999986
 20
1.749999964671971
 42
0.414213562373095
 10
38.84999999999986
 20
1.999999964671971
 10
38.49999999999986
 20
1.999999964672
 42
0.414213562373095
 10
38.24999999999986
 20
1.749999964671971
 10
38.24999999999986
 20
1.649999964672006
 10
37.39999999999987
 20
1.649999964672006
 10
37.39999999999987
 20
1.749999964671971
 42
0.414213562373095
 10
37.14999999999987
 20
1.999999964671971
 10
36.79999999999985
 20
1.999999964671971
 42
0.41421356237312
 10
36.54999999999985
 20
1.749999964671971
 10
36.54999999999988
 20
1.649999964672006
 10
35.69999999999985
 20
1.649999964672006
 10
35.69999999999985
 20
1.749999964671971
 42
0.4142135623730784
 10
35.44999999999988
 20
1.999999964671971
 10
35.09999999999986
 20
1.999999964671971
 42
0.41421356237312
 10
34.84999999999986
 20
1.749999964671971
 10
34.84999999999986
 20
1.649999964672006
 10
33.99999999999986
 20
1.649999964672006
 10
33.99999999999989
 20
1.749999964671971
 42
0.4142135623730867
 10
33.74999999999986
 20
1.999999964671971
 10
33.39999999999987
 20
1.999999964672
 42
0.4142135623730867
 10
33.14999999999987
 20
1.749999964672028
 10
33.14999999999987
 20
1.649999964672006
 10
32.29999999999985
 20
1.649999964672006
 10
32.29999999999985
 20
1.749999964671971
 42
0.4142135623730868
 10
32.04999999999988
 20
1.999999964672028
 10
31.69999999999988
 20
1.999999964672
 42
0.4142135623731033
 10
31.44999999999988
 20
1.749999964672028
 10
31.44999999999985
 20
1.649999964672006
 10
30.59999999999986
 20
1.649999964672006
 10
30.59999999999986
 20
1.749999964672028
 42
0.4142135623730867
 10
30.34999999999986
 20
1.999999964671971
 10
29.99999999999986
 20
1.999999964672028
 42
0.4142135623730867
 10
29.74999999999986
 20
1.749999964671971
 10
29.74999999999986
 20
1.649999964672006
 10
28.89999999999987
 20
1.649999964672006
 10
28.89999999999987
 20
1.749999964671971
 42
0.4142135623730949
 10
28.64999999999987
 20
1.999999964671971
 10
28.29999999999985
 20
1.999999964672028
 42
0.4142135623730867
  0
LWPOLYLINE
  5
BC06000000000117
330
11EBF
100
AcDbEntity
  8
ALU_OUTSIDE
390
11ED1
100
AcDbPolyline
 90
      179
 70
     1
 43
0.0
 10
40.89999999999984
 20
-12.9000793800103
 42
-0.4142135623731034
 10
41.19999999999983
 20
-13.20007938001028
 10
41.19999999999983
 20
-18.00000003532806
 10
46.00001657641037
 20
-18.00000003532806
 10
46.00001657641034
 20
-16.60000003532805
 42
0.4142135623731034
 10
45.70001657641036
 20
-16.30000003532807
 10
43.19999999999983
 20
-16.30000003532807
 42
-0.414213562373095
 10
42.89999999999981
 20
-16.00000003532806
 10
42.89999999999981
 20
-4.772440925879138
 42
-0.450467153690805
 10
44.02186934340501
 20
-3.779894774237832
 10
53.08959367393923
 20
-4.893271324551122
 42
-0.3297711771690349
 10
53.95254500489359
 20
-5.712242595077399
 10
55.6010209924773
 20
-15.06528505910505
 42
-0.4662850057637685
 10
55.40405685760539
 20
-15.30000003532807
 10
54.79698071128221
 20
-15.30000003532804
 42
-0.1952056129037213
 10
54.65759216403166
 20
-15.24342539185675
 10
53.43636925853281
 20
-14.05657467879941
 42
0.1952056129037266
 10
53.29698071128227
 20
-14.00000003532811
 10
53.19698071128227
 20
-14.00000003532811
 42
0.4662850057637858
 10
53.00001657641037
 20
-14.2347150115511
 10
53.61995168107817
 20
-17.75207249966265
 42
0.3639913060136886
 10
53.91539788338603
 20
-18.00000003532811
 10
57.40305244153846
 20
-18.00000003532809
 42
0.4662850057637598
 10
57.60001657641036
 20
-17.7652850591051
 10
55.49818429262741
 20
-5.840011806383231
 42
-0.5040181606716811
 10
56.05152930150974
 20
-5.256951290005034
 10
61.79873422543302
 20
-5.9626193230079
 42
-0.3297711771690504
 10
62.66168555638738
 20
-6.781590593534204
 10
64.12168870161975
 20
-15.06528505910508
 42
-0.4662850057637771
 10
63.92472456674785
 20
-15.30000003532807
 10
63.59951043180332
 20
-15.3000000353281
 42
-0.1952056129037361
 10
63.46012188455277
 20
-15.2434253918568
 10
62.23889897905386
 20
-14.05657467879941
 42
0.1952056129037213
 10
62.09951043180332
 20
-14.00000003532811
 10
61.99951043180332
 20
-14.00000003532811
 42
0.4142551471242757
 10
61.79951043381906
 20
-14.20002843075484
 10
61.79989655620904
 20
-16.91963810356962
 42
0.1316163882721939
 10
61.8400889320501
 20
-17.06959551042955
 10
62.29065569457709
 20
-17.85000003532811
 42
0.2679491924311316
 10
62.55046331571243
 20
-18.00000003532811
 10
65.80455379769197
 20
-18.00000003532809
 42
0.4662850057637599
 10
66.09999999999982
 20
-17.64792757099356
 10
64.20732484412119
 20
-6.90935980483998
 42
-0.5040181606716825
 10
64.76066985300352
 20
-6.32629928846184
 10
68.32437386868085
 20
-6.763867121214687
 42
-0.3788661086953254
 10
68.49999999999983
 20
-6.962376351542943
 10
68.49999999999983
 20
-7.500000035328057
 42
0.414213562373095
 10
68.69999999999982
 20
-7.700000035328074
 10
69.79999999999981
 20
-7.700000035328046
 42
0.414213562373095
 10
69.99999999999983
 20
-7.500000035328057
 10
69.9999999999998
 20
-7.195667017258486
 42
-0.4504671536907869
 10
70.22437386868086
 20
-6.997157786930202
 10
70.48674990855429
 20
-7.029373513777514
 42
-0.3297711771690349
 10
71.34970123950862
 20
-7.848344784303791
 10
72.62168870161969
 20
-15.06528505910505
 42
-0.4662850057637685
 10
72.42472456674778
 20
-15.30000003532807
 10
72.0999999999998
 20
-15.30000003532807
 42
-0.1952056129037213
 10
71.96061145274925
 20
-15.24342539185675
 10
70.73938854725034
 20
-14.05657467879938
 42
0.1952056129037213
 10
70.59999999999982
 20
-14.00000003532806
 10
70.4999999999998
 20
-14.00000003532809
 42
0.414213562373095
 10
70.29999999999981
 20
-14.20000003532807
 10
70.29999999999981
 20
-16.91961527759874
 42
0.1316524975873946
 10
70.34019237886449
 20
-17.06961527759871
 10
70.79074772881097
 20
-17.85000003532808
 42
0.2679491924311305
 10
71.05055534994634
 20
-18.00000003532806
 10
74.30455379769197
 20
-18.00000003532809
 42
0.4662850057637685
 10
74.59999999999982
 20
-17.64792757099356
 10
72.89534052724244
 20
-7.976113995609651
 42
-0.5040181606716811
 10
73.44868553612477
 20
-7.393053479231426
 10
75.83656080302137
 20
-7.686247695368237
 42
-0.3788661086953174
 10
76.09999999999982
 20
-7.984011540860635
 10
76.09999999999982
 20
-8.60060535186473
 42
-0.1895800480667787
 10
76.01962392467516
 20
-8.804971033206314
 10
75.28253727463357
 20
-9.59708966019521
 42
0.414213562373095
 10
75.29779551796733
 20
-10.02107926621211
 10
75.59062741753445
 20
-10.2935668413342
 42
0.414213562373095
 10
76.01461702355135
 20
-10.27830859800041
 10
77.01962392467519
 20
-9.198266398636676
 42
0.189580048066789
 10
77.09999999999982
 20
-8.993900717295148
 10
77.09999999999982
 20
-8.202564981347066
 42
-0.4823582210241611
 10
77.4674999999998
 20
-7.910257352298473
 42
-0.3492015436175746
 10
80.79999999999981
 20
-12.10000003532808
 10
80.79999999999981
 20
-15.10000003532808
 42
-0.663029638300907
 10
80.46061145274928
 20
-15.24342539185677
 10
79.23938854725037
 20
-14.05657467879938
 42
0.1952056129037317
 10
79.09999999999982
 20
-14.00000003532809
 10
78.99999999999983
 20
-14.00000003532809
 42
0.414213562373095
 10
78.79999999999981
 20
-14.20000003532807
 10
78.79999999999981
 20
-16.91961527759874
 42
0.1316524975873946
 10
78.84019237886449
 20
-17.06961527759874
 10
79.290747728811
 20
-17.85000003532808
 42
0.267949192431124
 10
79.55055534994634
 20
-18.00000003532809
 10
81.99999999999983
 20
-18.00000003532809
 42
0.414213562373095
 10
82.49999999999983
 20
-17.50000003532809
 10
82.49999999999983
 20
-14.10000003532808
 10
82.29999999999981
 20
-13.90000003532806
 10
82.49999999999983
 20
-13.70000003532807
 10
82.4999999999998
 20
-12.10000003532808
 42
0.3788661086953174
 10
77.23121606043071
 20
-6.144723125480127
 10
42.89999999999984
 20
-1.929379836237345
 10
42.89999999999984
 20
0.7499999646719147
 10
44.08920800901087
 20
0.7499999646719147
 42
0.9999999999999999
 10
44.08920800901084
 20
1.999999964671943
 10
41.49999999999984
 20
1.999999964671943
 42
0.4142135623730867
 10
41.19999999999983
 20
1.699999964671932
 10
41.19999999999983
 20
-4.800000035328068
 42
-0.4142135623730867
 10
40.89999999999981
 20
-5.10000003532808
 10
38.89999999999984
 20
-5.100000035328108
 42
-0.4142135623731034
 10
38.5999999999998
 20
-4.800000035328097
 10
38.59999999999983
 20
-4.300000035328097
 42
0.5176380902050456
 10
38.78856180831625
 20
-4.033333368661445
 10
38.59999999999983
 20
-3.500000035328085
 42
0.5176380902050456
 10
38.78856180831625
 20
-3.233333368661434
 10
38.59999999999983
 20
-2.700000035328102
 42
0.5176380902050636
 10
38.78856180831625
 20
-2.433333368661422
 10
38.59999999999986
 20
-1.900000035328091
 42
0.5176380902050456
 10
38.78856180831628
 20
-1.63333336866144
 10
38.59999999999983
 20
-1.100000035328108
 42
0.5176380902050275
 10
38.78856180831625
 20
-0.8333333686614282
 10
38.50571909584162
 20
-0.0333333686614452
 42
0.3178372451957787
 10
38.03431457505059
 20
0.2999999646718976
 10
37.29999999999985
 20
0.2999999646718976
 42
0.414213562373095
 10
36.99999999999986
 20
-0.0000000353280853
 10
36.99999999999984
 20
-5.100000035328108
 42
0.267949192431124
 10
36.49999999999984
 20
-5.966025439112528
 10
36.49999999999984
 20
-6.90957422147541
 42
0.267949192431124
 10
36.99999999999984
 20
-7.775599625259858
 10
37.67928243481192
 20
-8.167783521854389
 42
0.3394542588633688
 10
38.04141446916785
 20
-8.120107935075012
 10
38.11916232095081
 20
-8.042360083292081
 42
0.339454258863362
 10
38.16683790773016
 20
-7.680228048936115
 10
37.65863802712531
 20
-6.800000035328068
 10
37.65863802712531
 20
-6.500000035328057
 10
40.19982968227487
 20
-6.500000035328057
 10
40.19982968227487
 20
-6.800000035328068
 10
39.74343421548526
 20
-7.590500172151863
 42
0.3394542588633566
 10
39.79110980226461
 20
-7.952632206507829
 10
40.04725985170916
 20
-8.208782255952386
 42
0.3394542588633687
 10
40.40939188606516
 20
-8.256457842731734
 10
41.19999999999983
 20
-7.800000035328068
 10
41.39999999999981
 20
-7.800000035328068
 10
41.39999999999981
 20
-10.20015886473836
 10
41.19999999999983
 20
-10.20015886473836
 10
41.19999999999983
 20
-10.20047075585619
 10
40.40909346120836
 20
-9.743840652781117
 42
0.3394542588633565
 10
40.0469614268524
 20
-9.791516239560494
 10
39.79057062543632
 20
-10.04790704097657
 42
0.3394542588633687
 10
39.74289503865698
 20
-10.41003907533256
 10
40.19925098218329
 20
-11.20047075585619
 10
40.19925098218329
 20
-11.5004707558562
 10
37.65921672721701
 20
-11.5004707558562
 10
37.65921672721701
 20
-11.20047075585619
 10
38.1673770845585
 20
-10.32031119854834
 42
0.3394542588633565
 10
38.11970149777915
 20
-9.958179164192401
 10
38.04171289402465
 20
-9.880190560437924
 42
0.3394542588633856
 10
37.67958085966868
 20
-9.832514973658547
 10
36.79999999999982
 20
-10.34034121976241
 42
0.267949192431124
 10
36.29999999999982
 20
-11.20636662354686
 10
36.29999999999982
 20
-16.20000003532807
 42
-0.414213562373095
 10
35.99999999999984
 20
-16.50000003532809
 10
33.99999999999984
 20
-16.50000003532809
 42
-0.4142135623730784
 10
33.69999999999983
 20
-16.20000003532805
 10
33.69999999999983
 20
-15.50000003532806
 42
0.517638090205052
 10
33.88856180831625
 20
-15.23333336866141
 10
33.69999999999983
 20
-14.70000003532807
 42
0.517638090204999
 10
33.88856180831625
 20
-14.43333336866139
 10
33.69999999999983
 20
-13.90000003532806
 42
0.6482315195103806
 10
33.84907119849982
 20
-13.56666670199475
 10
33.22297216479988
 20
-12.86666670199473
 42
0.2134217652834071
 10
32.85029416854989
 20
-12.70000003532807
 10
32.49999999999984
 20
-12.70000003532807
 42
0.4142135623730784
 10
32.19999999999983
 20
-13.00000003532809
 10
32.19999999999983
 20
-16.50000003532809
 10
32.49999999999984
 20
-16.50000003532809
 10
32.49999999999984
 20
-18.00000003532809
 10
37.99999999999992
 20
-18.00000003532806
 10
37.99999999999992
 20
-13.20007938001028
 42
-0.414213562373095
 10
38.2999999999999
 20
-12.9000793800103
  0
LWPOLYLINE
  5
BC0600000000011E
330
11EBF
100
AcDbEntity
  8
PVC_OUTSIDE
390
11ED1
100
AcDbPolyline
 90
       94
 70
     1
 43
0.0
 10
-0.0000000000000782
 20
1.499999964671929
 42
-0.4142135623730794
 10
0.4999999999999005
 20
1.999999964671915
 10
2.710672043873505
 20
1.999999964672
 42
-0.408707826070711
 10
2.998086103814831
 20
1.760593044497824
 10
2.998086103814831
 20
1.640889584410715
 10
3.860328283638673
 20
1.640889584410715
 10
3.860328283638676
 20
1.760593044497867
 42
-0.4143446109809615
 10
4.147742343579992
 20
1.999999964671957
 10
4.43515640352129
 20
1.999999964672
 42
-0.4087078260707431
 10
4.722570463462638
 20
1.76059304449781
 10
4.722570463462638
 20
1.640889584410715
 10
5.584812643286604
 20
1.640889584410715
 10
5.584812643286607
 20
1.760593044497853
 42
-0.4143446109809733
 10
5.87222670322793
 20
1.999999964671957
 10
6.159640763169229
 20
1.999999964672
 42
-0.4087078260707314
 10
6.44705482311057
 20
1.760593044497824
 10
6.44705482311057
 20
1.640889584410814
 10
7.309297002934436
 20
1.640889584410715
 10
7.309297002934439
 20
1.760593044497853
 42
-0.4143446109809733
 10
7.596711062875762
 20
1.999999964671957
 10
7.884125122817061
 20
1.999999964672
 42
-0.4087078260707314
 10
8.171539182758401
 20
1.760593044497824
 10
8.171539182758401
 20
1.640889584410814
 10
9.03378136258224
 20
1.640889584410715
 10
9.033781362582243
 20
1.760593044497853
 42
-0.4143446109809733
 10
9.321195422523566
 20
1.999999964671957
 10
9.608609482464864
 20
1.999999964672
 42
-0.4087078260707314
 10
9.896023542406205
 20
1.760593044497824
 10
9.896023542406205
 20
1.640889584410814
 10
10.75826572223006
 20
1.640889584410715
 10
10.75826572223006
 20
1.760593044497853
 42
-0.414344610980995
 10
11.04567978217139
 20
1.999999964671957
 10
11.33309384211266
 20
1.999999964672
 42
-0.4087078260707549
 10
11.62050790205402
 20
1.76059304449781
 10
11.62050790205402
 20
1.640889584410715
 10
12.482750081878
 20
1.640889584410715
 10
12.482750081878
 20
1.760593044497867
 42
-0.4143446109809733
 10
12.77016414181933
 20
1.999999964671957
 10
13.05757820176061
 20
1.999999964672
 42
-0.4087078260707512
 10
13.34499226170196
 20
1.760593044497796
 10
13.34499226170196
 20
1.640889584410814
 10
14.20723444152581
 20
1.640889584410715
 10
14.20723444152581
 20
1.760593044497895
 42
-0.4143446109809533
 10
14.49464850146715
 20
1.999999964671957
 10
14.78206256140843
 20
1.999999964672
 42
-0.4087078260707336
 10
15.06947662134977
 20
1.760593044497824
 10
15.06947662134977
 20
1.640889584410814
 10
15.93171880117363
 20
1.640889584410715
 10
15.93171880117363
 20
1.760593044497895
 42
-0.4143446109809533
 10
16.21913286111497
 20
1.999999964671957
 10
16.50654692105625
 20
1.999999964672
 42
-0.4087078260707336
 10
16.7939609809976
 20
1.760593044497824
 10
16.79396098099759
 20
1.640889584410814
 10
17.65620316082157
 20
1.640889584410715
 10
17.65620316082157
 20
1.760593044497895
 42
-0.4143446109809533
 10
17.9436172207629
 20
1.999999964671957
 10
18.23103128070418
 20
1.999999964672
 42
-0.4087078260707336
 10
18.51844534064553
 20
1.760593044497824
 10
18.51844534064553
 20
1.640889584410715
 10
19.38068752046939
 20
1.640889584410715
 10
19.38068752046938
 20
1.760593044497895
 42
-0.4143446109809276
 10
19.6681015804107
 20
1.999999964671957
 10
19.955515640352
 20
1.999999964672
 42
-0.4087078260707336
 10
20.24292970029335
 20
1.760593044497824
 10
20.24292970029335
 20
1.640889584410715
 10
21.10517188011719
 20
1.640889584410715
 10
21.10517188011719
 20
1.760593044497909
 42
-0.4143446109808863
 10
21.39258594005848
 20
1.999999964671957
 10
21.67999999999981
 20
1.999999964672
 10
21.74999999999981
 20
1.999999964672
 42
-0.4142135623730951
 10
22.24999999999981
 20
1.499999964672
 10
22.24999999999981
 20
0.9999999646719999
 42
-0.4142135623730951
 10
21.74999999999981
 20
0.4999999646719999
 10
19.29999999999976
 20
0.4999999646719999
 42
0.4142135623730951
 10
18.79999999999976
 20
-0.0000000353280001
 10
18.79999999999976
 20
-1.171572910581929
 42
0.1989123673796545
 10
18.94644660940645
 20
-1.525126301175121
 10
22.27487373415256
 20
-4.853553425921262
 42
0.1989123673796583
 10
22.62842712474584
 20
-5.000000035328
 10
23.39999999999968
 20
-5.000000035328
 42
-1.0
 10
23.39999999999968
 20
-6.000000035328
 10
21.50710678118638
 20
-6.000000035328
 42
-0.1989123673796576
 10
21.15355339059307
 20
-5.853553425921248
 10
18.32903034639808
 20
-3.029030381726287
 42
0.2875575068629622
 10
17.81127484827111
 20
-2.910315132791681
 10
9.00466051591878
 20
-5.972268674855869
 42
-0.0838490775257196
 10
8.840458408385114
 20
-6.000000035328
 10
5.560660171779581
 20
-6.000000035328
 10
4.560660171779581
 20
-7.000000035328
 10
5.090990257669581
 20
-7.530330121217887
 10
4.560660171779581
 20
-8.060660207107802
 10
3.499999999999808
 20
-7.000000035328
 10
4.499999999999826
 20
-6.000000035328
 10
-0.0000000000001776
 20
-6.000000035328
  0
INSERT
  5
BC0600000000011F
330
11EBF
100
AcDbEntity
  8
ASSEMBLY
 62
     3
390
11ED1
100
AcDbBlockReference
  2
DICHTUNG_SW
 10
57.49976961103471
 20
12.99999999999989
 30
0.0
 41
-1.0
  0
INSERT
  5
BC060000000001CA
330
11EBF
100
AcDbEntity
  8
0
100
AcDbBlockReference
  2
_3692
 10
72.90610000785125
 20
29.34885432828887
 30
0.0
 41
-1.0
  0
INSERT
  5
BC060000000001CB
330
11EBF
100
AcDbEntity
  8
0
100
AcDbBlockReference
  2
_500B
 10
47.11864470900144
 20
10.77201520205478
 30
0.0
 41
-1.0
  0
ENDSEC
  0
SECTION
  2
OBJECTS
  0
DICTIONARY
  5
11ECD
330
0
100
AcDbDictionary
281
     1
  3
ACAD_DETAILVIEWSTYLE
350
BC060000000001D4
  3
ACAD_GROUP
350
11ECE
  3
ACAD_IMAGE_VARS
350
BC06000000000087
  3
ACAD_LAYOUT
350
11ED2
  3
ACAD_MATERIAL
350
BC0600000000000A
  3
ACAD_MLEADERSTYLE
350
BC0600000000015D
  3
ACAD_MLINESTYLE
350
11ECF
  3
ACAD_PLOTSETTINGS
350
11ED6
  3
ACAD_PLOTSTYLENAME
350
11ED3
  3
ACAD_SCALELIST
350
BC06000000000061
  3
ACAD_SECTIONVIEWSTYLE
350
BC060000000001D5
  3
ACAD_TABLESTYLE
350
BC06000000000083
  3
ACAD_VISUALSTYLE
350
BC06000000000048
  3
ACDB_RECOMPOSE_DATA
350
BC060000000001D8
  3
AcDbVariableDictionary
350
BC060000000001CC
  3
AEC_DISP_REPS
350
BC06000000000006
  3
AEC_DISPLAY_PROPS_DEFAULTS
350
BC06000000000008
  3
AEC_VARS
350
BC06000000000004
  3
APPDATA
350
BC06000000000085
  0
SUN
  5
BC06000000000086
330
11CBF
100
AcDbSun
 90
        1
290
     0
 63
     7
421
 16777215
 40
1.0
291
     1
 91
  2455826
 92
 54000000
292
     0
 70
     2
 71
   256
280
     1
  0
DICTIONARY
  5
BC060000000001D4
102
{ACAD_REACTORS
330
11ECD
102
}
330
11ECD
100
AcDbDictionary
281
     1
  0
DICTIONARY
  5
11ECE
102
{ACAD_REACTORS
330
11ECD
102
}
330
11ECD
100
AcDbDictionary
281
     1
  0
RASTERVARIABLES
  5
BC06000000000087
102
{ACAD_REACTORS
330
11ECD
102
}
330
11ECD
100
AcDbRasterVariables
 90
        0
 70
     1
 71
     1
 72
     0
  0
DICTIONARY
  5
11ED2
102
{ACAD_REACTORS
330
11ECD
102
}
330
11ECD
100
AcDbDictionary
281
     1
  3
Layout1
350
11ED5
  3
Model
350
11ED4
  0
DICTIONARY
  5
BC0600000000000A
102
{ACAD_REACTORS
330
11ECD
102
}
330
11ECD
100
AcDbDictionary
281
     1
  3
ByBlock
350
BC0600000000000C
  3
ByLayer
350
BC0600000000000B
  3
Global
350
BC0600000000000D
  0
DICTIONARY
  5
BC0600000000015D
102
{ACAD_REACTORS
330
11ECD
102
}
330
11ECD
100
AcDbDictionary
281
     1
  0
DICTIONARY
  5
11ECF
102
{ACAD_REACTORS
330
11ECD
102
}
330
11ECD
100
AcDbDictionary
281
     1
  3
Standard
350
11ED0
  0
DICTIONARY
  5
11ED6
102
{ACAD_REACTORS
330
11ECD
102
}
330
11ECD
100
AcDbDictionary
281
     1
  0
ACDBDICTIONARYWDFLT
  5
11ED3
102
{ACAD_REACTORS
330
11ECD
102
}
330
11ECD
100
AcDbDictionary
281
     1
  3
Normal
350
11ED1
100
AcDbDictionaryWithDefault
340
11ED1
  0
DICTIONARY
  5
BC06000000000061
102
{ACAD_REACTORS
330
11ECD
102
}
330
11ECD
100
AcDbDictionary
281
     1
  3
A0
350
BC06000000000062
  3
A1
350
BC06000000000063
  3
A2
350
BC06000000000064
  3
A3
350
BC06000000000065
  3
A4
350
BC06000000000066
  3
A5
350
BC06000000000067
  3
A6
350
BC06000000000068
  3
A7
350
BC06000000000069
  3
A8
350
BC0600000000006A
  3
A9
350
BC0600000000006B
  3
B0
350
BC0600000000006C
  3
B1
350
BC0600000000006D
  3
B2
350
BC0600000000006E
  3
B3
350
BC0600000000006F
  3
B4
350
BC06000000000070
  3
B5
350
BC06000000000071
  3
B6
350
BC06000000000072
  3
B7
350
BC06000000000073
  3
B8
350
BC06000000000074
  3
B9
350
BC06000000000075
  3
C0
350
BC06000000000076
  3
C1
350
BC06000000000077
  3
C2
350
BC06000000000078
  3
C3
350
BC06000000000079
  3
C4
350
BC0600000000007A
  3
C5
350
BC0600000000007B
  3
C6
350
BC0600000000007C
  3
C7
350
BC0600000000007D
  3
C8
350
BC0600000000007E
  3
C9
350
BC0600000000007F
  3
D0
350
BC06000000000080
  3
D1
350
BC06000000000081
  3
D2
350
BC06000000000082
  0
DICTIONARY
  5
BC060000000001D5
102
{ACAD_REACTORS
330
11ECD
102
}
330
11ECD
100
AcDbDictionary
281
     1
  0
DICTIONARY
  5
BC06000000000083
102
{ACAD_REACTORS
330
11ECD
102
}
330
11ECD
100
AcDbDictionary
281
     1
  3
Standard
350
BC06000000000084
  0
DICTIONARY
  5
BC06000000000048
102
{ACAD_REACTORS
330
11ECD
102
}
330
11ECD
100
AcDbDictionary
281
     1
  3
2dWireframe
350
BC0600000000004D
  3
Basic
350
BC06000000000050
  3
Brighten
350
BC06000000000054
  3
ColorChange
350
BC06000000000058
  3
Conceptual
350
BC06000000000052
  3
Dim
350
BC06000000000053
  3
EdgeColorOff
350
BC0600000000005B
  3
Facepattern
350
BC06000000000057
  3
Flat
350
BC06000000000049
  3
FlatWithEdges
350
BC0600000000004A
  3
Gouraud
350
BC0600000000004B
  3
GouraudWithEdges
350
BC0600000000004C
  3
Hidden
350
BC0600000000004F
  3
JitterOff
350
BC06000000000059
  3
Linepattern
350
BC06000000000056
  3
OverhangOff
350
BC0600000000005A
  3
Realistic
350
BC06000000000051
  3
Shaded
350
BC06000000000060
  3
Shaded with edges
350
BC0600000000005F
  3
Shades of Gray
350
BC0600000000005C
  3
Sketchy
350
BC0600000000005D
  3
Thicken
350
BC06000000000055
  3
Wireframe
350
BC0600000000004E
  3
X-Ray
350
BC0600000000005E
  0
XRECORD
  5
BC060000000001D8
102
{ACAD_REACTORS
330
11ECD
102
}
330
11ECD
100
AcDbXrecord
280
     1
 90
        1
330
BC06000000000084
  0
DICTIONARY
  5
BC060000000001CC
102
{ACAD_REACTORS
330
11ECD
102
}
330
11ECD
100
AcDbDictionary
281
     1
  3
CANNOSCALE
350
BC060000000001CD
  3
CTABLESTYLE
350
BC060000000001D2
  3
LIGHTINGUNITS
350
BC060000000001CE
  3
MSLTSCALE
350
BC060000000001D3
  0
DICTIONARY
  5
BC06000000000006
102
{ACAD_REACTORS
330
11ECD
102
}
330
11ECD
100
AcDbDictionary
281
     1
  3
AecDbDispRep2dSection
350
BC06000000000007
  3
AecDbDispRepAnchor
350
BC06000000000041
  3
AecDbDispRepAnchorEntToNode
350
BC06000000000042
  3
AecDbDispRepClipVolModel
350
BC0600000000000E
  3
AecDbDispRepClipVolPlan
350
BC06000000000010
  3
AecDbDispRepClipVolResSubDiv
350
BC06000000000013
  3
AecDbDispRepClipVolResult
350
BC06000000000012
  3
AecDbDispRepDisplayTheme
350
BC06000000000015
  3
AecDbDispRepEditInPlaceProfile
350
BC06000000000046
  3
AecDbDispRepEntRef
350
BC06000000000017
  3
AecDbDispRepLayoutCurve
350
BC06000000000019
  3
AecDbDispRepLayoutGrid2d
350
BC0600000000001B
  3
AecDbDispRepLayoutGrid3d
350
BC0600000000001D
  3
AecDbDispRepMaskBlockRef
350
BC0600000000001F
  3
AecDbDispRepMaskBlockRefRcp
350
BC06000000000021
  3
AecDbDispRepMassElemModel
350
BC06000000000023
  3
AecDbDispRepMassElemPlan100
350
BC06000000000029
  3
AecDbDispRepMassElemPlan50
350
BC06000000000027
  3
AecDbDispRepMassElemRcp
350
BC0600000000002B
  3
AecDbDispRepMassElemSchem
350
BC06000000000025
  3
AecDbDispRepMassGroupModel
350
BC0600000000002D
  3
AecDbDispRepMassGroupPlan
350
BC0600000000002F
  3
AecDbDispRepMassGroupPlan100
350
BC06000000000033
  3
AecDbDispRepMassGroupPlan50
350
BC06000000000031
  3
AecDbDispRepMassGroupRcp
350
BC06000000000035
  3
AecDbDispRepMaterial
350
BC06000000000044
  3
AecDbDispRepMvBlockRef
350
BC06000000000037
  3
AecDbDispRepMvBlockRefModel
350
BC06000000000038
  3
AecDbDispRepMvBlockRefPlan100
350
BC06000000000039
  3
AecDbDispRepMvBlockRefPlan50
350
BC0600000000003A
  3
AecDbDispRepPolygonModel
350
BC0600000000003B
  3
AecDbDispRepPolygonTrueColour
350
BC0600000000003D
  3
AecDbDispRepSlice
350
BC0600000000003F
  0
DICTIONARY
  5
BC06000000000008
102
{ACAD_REACTORS
330
11ECD
102
}
330
11ECD
100
AcDbDictionary
281
     1
  3
*A1
350
BC06000000000009
  3
*A10
350
BC06000000000020
  3
*A11
350
BC06000000000022
  3
*A12
350
BC06000000000024
  3
*A13
350
BC06000000000026
  3
*A14
350
BC06000000000028
  3
*A15
350
BC0600000000002A
  3
*A16
350
BC0600000000002C
  3
*A17
350
BC0600000000002E
  3
*A18
350
BC06000000000030
  3
*A19
350
BC06000000000032
  3
*A2
350
BC0600000000000F
  3
*A20
350
BC06000000000034
  3
*A21
350
BC06000000000036
  3
*A22
350
BC0600000000003C
  3
*A23
350
BC0600000000003E
  3
*A24
350
BC06000000000040
  3
*A25
350
BC06000000000043
  3
*A26
350
BC06000000000045
  3
*A27
350
BC06000000000047
  3
*A3
350
BC06000000000011
  3
*A4
350
BC06000000000014
  3
*A5
350
BC06000000000016
  3
*A6
350
BC06000000000018
  3
*A7
350
BC0600000000001A
  3
*A8
350
BC0600000000001C
  3
*A9
350
BC0600000000001E
  0
DICTIONARY
  5
BC06000000000004
102
{ACAD_REACTORS
330
11ECD
102
}
330
11ECD
100
AcDbDictionary
281
     1
  3
AEC_VARS_DWG_SETUP
350
BC06000000000005
  0
DICTIONARY
  5
BC06000000000085
102
{ACAD_REACTORS
330
11ECD
102
}
330
11ECD
100
AcDbDictionary
281
     1
  0
LAYOUT
  5
11ED5
102
{ACAD_REACTORS
330
11ED2
102
}
330
11ED2
100
AcDbPlotSettings
  1

  2

  4

  6

 40
0.0
 41
0.0
 42
0.0
 43
0.0
 44
0.0
 45
0.0
 46
0.0
 47
0.0
 48
0.0
 49
0.0
140
0.0
141
0.0
142
1.0
143
1.0
 70
     0
 72
     0
 73
     0
 74
     0
  7

 75
     0
 76
     0
 77
     2
 78
   300
147
1.0
148
0.0
149
0.0
100
AcDbLayout
  1
Layout1
 70
     0
 71
     0
 10
0.0
 20
0.0
 11
0.0
 21
0.0
 12
0.0
 22
0.0
 32
0.0
 14
0.0
 24
0.0
 34
0.0
 15
0.0
 25
0.0
 35
0.0
146
0.0
 13
0.0
 23
0.0
 33
0.0
 16
0.0
 26
0.0
 36
0.0
 17
0.0
 27
0.0
 37
0.0
 76
     0
330
11EC0
  0
LAYOUT
  5
11ED4
102
{ACAD_REACTORS
330
11ED2
102
}
330
11ED2
100
AcDbPlotSettings
  1

  2

  4

  6

 40
0.0
 41
0.0
 42
0.0
 43
0.0
 44
0.0
 45
0.0
 46
0.0
 47
0.0
 48
0.0
 49
0.0
140
0.0
141
0.0
142
1.0
143
1.0
 70
  1024
 72
     0
 73
     0
 74
     0
  7

 75
     0
 76
     0
 77
     2
 78
   300
147
1.0
148
0.0
149
0.0
100
AcDbLayout
  1
Model
 70
     0
 71
     1
 10
0.0
 20
0.0
 11
0.0
 21
0.0
 12
0.0
 22
0.0
 32
0.0
 14
0.0
 24
0.0
 34
0.0
 15
0.0
 25
0.0
 35
0.0
146
0.0
 13
0.0
 23
0.0
 33
0.0
 16
0.0
 26
0.0
 36
0.0
 17
0.0
 27
0.0
 37
0.0
 76
     0
330
11EBF
331
11CBF
  0
MATERIAL
  5
BC0600000000000C
102
{ACAD_REACTORS
330
BC0600000000000A
102
}
330
BC0600000000000A
100
AcDbMaterial
  1
ByBlock
 72
     1
 94
      127
  0
MATERIAL
  5
BC0600000000000B
102
{ACAD_REACTORS
330
BC0600000000000A
102
}
330
BC0600000000000A
100
AcDbMaterial
  1
ByLayer
 72
     1
 94
      127
  0
MATERIAL
  5
BC0600000000000D
102
{ACAD_REACTORS
330
BC0600000000000A
102
}
330
BC0600000000000A
100
AcDbMaterial
  1
Global
 72
     1
 94
      127
  0
MLINESTYLE
  5
11ED0
102
{ACAD_REACTORS
330
11ECF
102
}
330
11ECF
100
AcDbMlineStyle
  2
Standard
 70
     0
  3

 62
     0
 51
90.0
 52
90.0
 71
     2
 49
0.5
 62
   256
  6
BYLAYER
 49
-0.5
 62
   256
  6
BYLAYER
  0
ACDBPLACEHOLDER
  5
11ED1
102
{ACAD_REACTORS
330
11ED3
102
}
330
11ED3
  0
SCALE
  5
BC06000000000062
102
{ACAD_REACTORS
330
BC06000000000061
102
}
330
BC06000000000061
100
AcDbScale
 70
     0
300
1:1
140
1.0
141
1.0
290
     1
  0
SCALE
  5
BC06000000000063
102
{ACAD_REACTORS
330
BC06000000000061
102
}
330
BC06000000000061
100
AcDbScale
 70
     0
300
1:2
140
1.0
141
2.0
290
     0
  0
SCALE
  5
BC06000000000064
102
{ACAD_REACTORS
330
BC06000000000061
102
}
330
BC06000000000061
100
AcDbScale
 70
     0
300
1:4
140
1.0
141
4.0
290
     0
  0
SCALE
  5
BC06000000000065
102
{ACAD_REACTORS
330
BC06000000000061
102
}
330
BC06000000000061
100
AcDbScale
 70
     0
300
1:5
140
1.0
141
5.0
290
     0
  0
SCALE
  5
BC06000000000066
102
{ACAD_REACTORS
330
BC06000000000061
102
}
330
BC06000000000061
100
AcDbScale
 70
     0
300
1:8
140
1.0
141
8.0
290
     0
  0
SCALE
  5
BC06000000000067
102
{ACAD_REACTORS
330
BC06000000000061
102
}
330
BC06000000000061
100
AcDbScale
 70
     0
300
1:10
140
1.0
141
10.0
290
     0
  0
SCALE
  5
BC06000000000068
102
{ACAD_REACTORS
330
BC06000000000061
102
}
330
BC06000000000061
100
AcDbScale
 70
     0
300
1:16
140
1.0
141
16.0
290
     0
  0
SCALE
  5
BC06000000000069
102
{ACAD_REACTORS
330
BC06000000000061
102
}
330
BC06000000000061
100
AcDbScale
 70
     0
300
1:20
140
1.0
141
20.0
290
     0
  0
SCALE
  5
BC0600000000006A
102
{ACAD_REACTORS
330
BC06000000000061
102
}
330
BC06000000000061
100
AcDbScale
 70
     0
300
1:30
140
1.0
141
30.0
290
     0
  0
SCALE
  5
BC0600000000006B
102
{ACAD_REACTORS
330
BC06000000000061
102
}
330
BC06000000000061
100
AcDbScale
 70
     0
300
1:40
140
1.0
141
40.0
290
     0
  0
SCALE
  5
BC0600000000006C
102
{ACAD_REACTORS
330
BC06000000000061
102
}
330
BC06000000000061
100
AcDbScale
 70
     0
300
1:50
140
1.0
141
50.0
290
     0
  0
SCALE
  5
BC0600000000006D
102
{ACAD_REACTORS
330
BC06000000000061
102
}
330
BC06000000000061
100
AcDbScale
 70
     0
300
1:100
140
1.0
141
100.0
290
     0
  0
SCALE
  5
BC0600000000006E
102
{ACAD_REACTORS
330
BC06000000000061
102
}
330
BC06000000000061
100
AcDbScale
 70
     0
300
2:1
140
2.0
141
1.0
290
     0
  0
SCALE
  5
BC0600000000006F
102
{ACAD_REACTORS
330
BC06000000000061
102
}
330
BC06000000000061
100
AcDbScale
 70
     0
300
4:1
140
4.0
141
1.0
290
     0
  0
SCALE
  5
BC06000000000070
102
{ACAD_REACTORS
330
BC06000000000061
102
}
330
BC06000000000061
100
AcDbScale
 70
     0
300
8:1
140
8.0
141
1.0
290
     0
  0
SCALE
  5
BC06000000000071
102
{ACAD_REACTORS
330
BC06000000000061
102
}
330
BC06000000000061
100
AcDbScale
 70
     0
300
10:1
140
10.0
141
1.0
290
     0
  0
SCALE
  5
BC06000000000072
102
{ACAD_REACTORS
330
BC06000000000061
102
}
330
BC06000000000061
100
AcDbScale
 70
     0
300
100:1
140
100.0
141
1.0
290
     0
  0
SCALE
  5
BC06000000000073
102
{ACAD_REACTORS
330
BC06000000000061
102
}
330
BC06000000000061
100
AcDbScale
 70
     0
300
1/128" = 1'-0"
140
0.0078125
141
12.0
290
     0
  0
SCALE
  5
BC06000000000074
102
{ACAD_REACTORS
330
BC06000000000061
102
}
330
BC06000000000061
100
AcDbScale
 70
     0
300
1/64" = 1'-0"
140
0.015625
141
12.0
290
     0
  0
SCALE
  5
BC06000000000075
102
{ACAD_REACTORS
330
BC06000000000061
102
}
330
BC06000000000061
100
AcDbScale
 70
     0
300
1/32" = 1'-0"
140
0.03125
141
12.0
290
     0
  0
SCALE
  5
BC06000000000076
102
{ACAD_REACTORS
330
BC06000000000061
102
}
330
BC06000000000061
100
AcDbScale
 70
     0
300
1/16" = 1'-0"
140
0.0625
141
12.0
290
     0
  0
SCALE
  5
BC06000000000077
102
{ACAD_REACTORS
330
BC06000000000061
102
}
330
BC06000000000061
100
AcDbScale
 70
     0
300
3/32" = 1'-0"
140
0.09375
141
12.0
290
     0
  0
SCALE
  5
BC06000000000078
102
{ACAD_REACTORS
330
BC06000000000061
102
}
330
BC06000000000061
100
AcDbScale
 70
     0
300
1/8" = 1'-0"
140
0.125
141
12.0
290
     0
  0
SCALE
  5
BC06000000000079
102
{ACAD_REACTORS
330
BC06000000000061
102
}
330
BC06000000000061
100
AcDbScale
 70
     0
300
3/16" = 1'-0"
140
0.1875
141
12.0
290
     0
  0
SCALE
  5
BC0600000000007A
102
{ACAD_REACTORS
330
BC06000000000061
102
}
330
BC06000000000061
100
AcDbScale
 70
     0
300
1/4" = 1'-0"
140
0.25
141
12.0
290
     0
  0
SCALE
  5
BC0600000000007B
102
{ACAD_REACTORS
330
BC06000000000061
102
}
330
BC06000000000061
100
AcDbScale
 70
     0
300
3/8" = 1'-0"
140
0.375
141
12.0
290
     0
  0
SCALE
  5
BC0600000000007C
102
{ACAD_REACTORS
330
BC06000000000061
102
}
330
BC06000000000061
100
AcDbScale
 70
     0
300
1/2" = 1'-0"
140
0.5
141
12.0
290
     0
  0
SCALE
  5
BC0600000000007D
102
{ACAD_REACTORS
330
BC06000000000061
102
}
330
BC06000000000061
100
AcDbScale
 70
     0
300
3/4" = 1'-0"
140
0.75
141
12.0
290
     0
  0
SCALE
  5
BC0600000000007E
102
{ACAD_REACTORS
330
BC06000000000061
102
}
330
BC06000000000061
100
AcDbScale
 70
     0
300
1" = 1'-0"
140
1.0
141
12.0
290
     0
  0
SCALE
  5
BC0600000000007F
102
{ACAD_REACTORS
330
BC06000000000061
102
}
330
BC06000000000061
100
AcDbScale
 70
     0
300
1-1/2" = 1'-0"
140
1.5
141
12.0
290
     0
  0
SCALE
  5
BC06000000000080
102
{ACAD_REACTORS
330
BC06000000000061
102
}
330
BC06000000000061
100
AcDbScale
 70
     0
300
3" = 1'-0"
140
3.0
141
12.0
290
     0
  0
SCALE
  5
BC06000000000081
102
{ACAD_REACTORS
330
BC06000000000061
102
}
330
BC06000000000061
100
AcDbScale
 70
     0
300
6" = 1'-0"
140
6.0
141
12.0
290
     0
  0
SCALE
  5
BC06000000000082
102
{ACAD_REACTORS
330
BC06000000000061
102
}
330
BC06000000000061
100
AcDbScale
 70
     0
300
1'-0" = 1'-0"
140
12.0
141
12.0
290
     0
  0
TABLESTYLE
  5
BC06000000000084
102
{ACAD_REACTORS
330
BC06000000000083
102
}
102
{ACAD_XDICTIONARY
360
BC060000000001D6
102
}
330
BC06000000000083
100
AcDbTableStyle
  3
Standard
 70
     0
 71
     0
 40
0.06
 41
0.06
280
     0
281
     0
  7
STANDARD
140
0.18
170
     2
 62
     0
 63
   257
283
     0
 90
        4
 91
        0
  1

274
    -2
284
     1
 64
     0
275
    -2
285
     1
 65
     0
276
    -2
286
     1
 66
     0
277
    -2
287
     1
 67
     0
278
    -2
288
     1
 68
     0
279
    -2
289
     1
 69
     0
  7
STANDARD
140
0.25
170
     5
 62
     0
 63
   257
283
     0
 90
        4
 91
        0
  1

274
    -2
284
     1
 64
     0
275
    -2
285
     1
 65
     0
276
    -2
286
     1
 66
     0
277
    -2
287
     1
 67
     0
278
    -2
288
     1
 68
     0
279
    -2
289
     1
 69
     0
  7
STANDARD
140
0.18
170
     5
 62
     0
 63
   257
283
     0
 90
        4
 91
        0
  1

274
    -2
284
     1
 64
     0
275
    -2
285
     1
 65
     0
276
    -2
286
     1
 66
     0
277
    -2
287
     1
 67
     0
278
    -2
288
     1
 68
     0
279
    -2
289
     1
 69
     0
  0
VISUALSTYLE
  5
BC0600000000004D
102
{ACAD_REACTORS
330
BC06000000000048
102
}
330
BC06000000000048
100
AcDbVisualStyle
  2
2dWireframe
 70
     4
 71
     0
 72
     2
 73
     0
 90
        0
 40
0.6
 41
30.0
 62
     5
 63
     7
421
 16777215
 74
     1
 91
        4
 64
     7
 65
   257
 75
     1
175
     1
 42
1.0
 92
        0
 66
   257
 43
1.0
 76
     1
 77
     6
 78
     2
 67
     7
 79
     5
170
     0
171
     0
290
     0
174
     0
 93
        1
 44
0.0
173
     0
291
     0
 45
0.0
  0
VISUALSTYLE
  5
BC06000000000050
102
{ACAD_REACTORS
330
BC06000000000048
102
}
330
BC06000000000048
100
AcDbVisualStyle
  2
Basic
 70
     7
 71
     1
 72
     0
 73
     1
 90
        0
 40
0.6
 41
30.0
 62
     5
 63
     7
421
 16777215
 74
     0
 91
        4
 64
     7
 65
   257
 75
     1
175
     1
 42
1.0
 92
        8
 66
     7
 43
1.0
 76
     1
 77
     6
 78
     2
 67
     7
 79
     5
170
     0
171
     0
290
     0
174
     0
 93
        1
 44
0.0
173
     0
291
     1
 45
0.0
  0
VISUALSTYLE
  5
BC06000000000054
102
{ACAD_REACTORS
330
BC06000000000048
102
}
330
BC06000000000048
100
AcDbVisualStyle
  2
Brighten
 70
    12
 71
     2
 72
     2
 73
     0
 90
        0
 40
0.6
 41
30.0
 62
     5
 63
     7
421
 16777215
 74
     1
 91
        4
 64
     7
 65
   257
 75
     1
175
     1
 42
1.0
 92
        8
 66
     7
 43
1.0
 76
     1
 77
     6
 78
     2
 67
     7
 79
     5
170
     0
171
     0
290
     0
174
     0
 93
        1
 44
50.0
173
     0
291
     1
 45
0.0
  0
VISUALSTYLE
  5
BC06000000000058
102
{ACAD_REACTORS
330
BC06000000000048
102
}
330
BC06000000000048
100
AcDbVisualStyle
  2
ColorChange
 70
    16
 71
     2
 72
     2
 73
     3
 90
        0
 40
0.6
 41
30.0
 62
     5
 63
     8
421
  8421504
 74
     1
 91
        4
 64
     7
 65
   257
 75
     1
175
     1
 42
1.0
 92
        8
 66
     8
424
  8421504
 43
1.0
 76
     1
 77
     6
 78
     2
 67
     7
 79
     5
170
     0
171
     0
290
     0
174
     0
 93
        1
 44
0.0
173
     0
291
     1
 45
0.0
  0
VISUALSTYLE
  5
BC06000000000052
102
{ACAD_REACTORS
330
BC06000000000048
102
}
330
BC06000000000048
100
AcDbVisualStyle
  2
Conceptual
 70
     9
 71
     3
 72
     2
 73
     0
 90
        0
 40
0.6
 41
30.0
 62
     5
 63
     7
421
 16777215
 74
     2
 91
        2
 64
     7
 65
   257
 75
     1
175
     1
 42
179.0
 92
        8
 66
     7
 43
1.0
 76
     1
 77
     6
 78
     2
 67
     7
 79
     3
170
     0
171
     0
290
     0
174
     0
 93
        1
 44
0.0
173
     0
291
     0
 45
0.0
  0
VISUALSTYLE
  5
BC06000000000053
102
{ACAD_REACTORS
330
BC06000000000048
102
}
330
BC06000000000048
100
AcDbVisualStyle
  2
Dim
 70
    11
 71
     2
 72
     2
 73
     0
 90
        0
 40
0.6
 41
30.0
 62
     5
 63
     7
421
 16777215
 74
     1
 91
        4
 64
     7
 65
   257
 75
     1
175
     1
 42
1.0
 92
        8
 66
     7
 43
1.0
 76
     1
 77
     6
 78
     2
 67
     7
 79
     5
170
     0
171
     0
290
     0
174
     0
 93
        1
 44
-50.0
173
     0
291
     1
 45
0.0
  0
VISUALSTYLE
  5
BC0600000000005B
102
{ACAD_REACTORS
330
BC06000000000048
102
}
330
BC06000000000048
100
AcDbVisualStyle
  2
EdgeColorOff
 70
    22
 71
     2
 72
     2
 73
     0
 90
        0
 40
0.6
 41
30.0
 62
     5
 63
     7
421
 16777215
 74
     1
 91
        4
 64
     7
 65
   257
 75
     1
175
     1
 42
1.0
 92
        8
 66
     7
 43
1.0
 76
     1
 77
     6
 78
     2
 67
     7
 79
     5
170
     0
171
     0
290
     0
174
     0
 93
        1
 44
0.0
173
     0
291
     1
 45
0.0
  0
VISUALSTYLE
  5
BC06000000000057
102
{ACAD_REACTORS
330
BC06000000000048
102
}
330
BC06000000000048
100
AcDbVisualStyle
  2
Facepattern
 70
    15
 71
     2
 72
     2
 73
     0
 90
        0
 40
0.6
 41
30.0
 62
     5
 63
     7
421
 16777215
 74
     1
 91
        4
 64
     7
 65
   257
 75
     1
175
     1
 42
1.0
 92
        8
 66
     7
 43
1.0
 76
     1
 77
     6
 78
     2
 67
     7
 79
     5
170
     0
171
     0
290
     0
174
     0
 93
        1
 44
0.0
173
     0
291
     1
 45
0.0
  0
VISUALSTYLE
  5
BC06000000000049
102
{ACAD_REACTORS
330
BC06000000000048
102
}
330
BC06000000000048
100
AcDbVisualStyle
  2
Flat
 70
     0
 71
     2
 72
     1
 73
     1
 90
        2
 40
0.6
 41
30.0
 62
     5
 63
     7
421
 16777215
 74
     0
 91
        0
 64
     7
 65
   257
 75
     1
175
     1
 42
1.0
 92
        8
 66
     7
 43
1.0
 76
     1
 77
     6
 78
     2
 67
     7
 79
     5
170
     0
171
     0
290
     0
174
     0
 93
       13
 44
0.0
173
     0
291
     1
 45
0.0
  0
VISUALSTYLE
  5
BC0600000000004A
102
{ACAD_REACTORS
330
BC06000000000048
102
}
330
BC06000000000048
100
AcDbVisualStyle
  2
FlatWithEdges
 70
     1
 71
     2
 72
     1
 73
     1
 90
        2
 40
0.6
 41
30.0
 62
     5
 63
     7
421
 16777215
 74
     1
 91
        0
 64
     7
 65
   257
 75
     1
175
     1
 42
1.0
 92
        0
 66
   257
 43
1.0
 76
     1
 77
     6
 78
     2
 67
     7
 79
     5
170
     0
171
     0
290
     0
174
     0
 93
       13
 44
0.0
173
     0
291
     1
 45
0.0
  0
VISUALSTYLE
  5
BC0600000000004B
102
{ACAD_REACTORS
330
BC06000000000048
102
}
330
BC06000000000048
100
AcDbVisualStyle
  2
Gouraud
 70
     2
 71
     2
 72
     2
 73
     1
 90
        2
 40
0.6
 41
30.0
 62
     5
 63
     7
421
 16777215
 74
     0
 91
        0
 64
     7
 65
   257
 75
     1
175
     1
 42
1.0
 92
        0
 66
     7
 43
1.0
 76
     1
 77
     6
 78
     2
 67
     7
 79
     5
170
     0
171
     0
290
     0
174
     0
 93
       13
 44
0.0
173
     0
291
     1
 45
0.0
  0
VISUALSTYLE
  5
BC0600000000004C
102
{ACAD_REACTORS
330
BC06000000000048
102
}
330
BC06000000000048
100
AcDbVisualStyle
  2
GouraudWithEdges
 70
     3
 71
     2
 72
     2
 73
     1
 90
        2
 40
0.6
 41
30.0
 62
     5
 63
     7
421
 16777215
 74
     1
 91
        0
 64
     7
 65
   257
 75
     1
175
     1
 42
1.0
 92
        0
 66
   257
 43
1.0
 76
     1
 77
     6
 78
     2
 67
     7
 79
     5
170
     0
171
     0
290
     0
174
     0
 93
       13
 44
0.0
173
     0
291
     1
 45
0.0
  0
VISUALSTYLE
  5
BC0600000000004F
102
{ACAD_REACTORS
330
BC06000000000048
102
}
330
BC06000000000048
100
AcDbVisualStyle
  2
Hidden
 70
     6
 71
     1
 72
     2
 73
     2
 90
        0
 40
0.6
 41
30.0
 62
     5
 63
     7
421
 16777215
 74
     2
 91
        2
 64
     7
 65
   257
 75
     2
175
     1
 42
40.0
 92
        0
 66
   257
 43
1.0
 76
     1
 77
     6
 78
     2
 67
     7
 79
     3
170
     0
171
     0
290
     0
174
     0
 93
        1
 44
0.0
173
     0
291
     0
 45
0.0
  0
VISUALSTYLE
  5
BC06000000000059
102
{ACAD_REACTORS
330
BC06000000000048
102
}
330
BC06000000000048
100
AcDbVisualStyle
  2
JitterOff
 70
    20
 71
     2
 72
     2
 73
     0
 90
        0
 40
0.6
 41
30.0
 62
     5
 63
     7
421
 16777215
 74
     1
 91
        4
 64
     7
 65
   257
 75
     1
175
     1
 42
1.0
 92
       10
 66
     7
 43
1.0
 76
     1
 77
     6
 78
     2
 67
     7
 79
     5
170
     0
171
     0
290
     0
174
     0
 93
        1
 44
0.0
173
     0
291
     1
 45
0.0
  0
VISUALSTYLE
  5
BC06000000000056
102
{ACAD_REACTORS
330
BC06000000000048
102
}
330
BC06000000000048
100
AcDbVisualStyle
  2
Linepattern
 70
    14
 71
     2
 72
     2
 73
     0
 90
        0
 40
0.6
 41
30.0
 62
     5
 63
     7
421
 16777215
 74
     1
 91
        4
 64
     7
 65
   257
 75
     7
175
     7
 42
1.0
 92
        8
 66
     7
 43
1.0
 76
     1
 77
     6
 78
     2
 67
     7
 79
     5
170
     0
171
     0
290
     0
174
     0
 93
        1
 44
0.0
173
     0
291
     1
 45
0.0
  0
VISUALSTYLE
  5
BC0600000000005A
102
{ACAD_REACTORS
330
BC06000000000048
102
}
330
BC06000000000048
100
AcDbVisualStyle
  2
OverhangOff
 70
    21
 71
     2
 72
     2
 73
     0
 90
        0
 40
0.6
 41
30.0
 62
     5
 63
     7
421
 16777215
 74
     1
 91
        4
 64
     7
 65
   257
 75
     1
175
     1
 42
1.0
 92
        9
 66
     7
 43
1.0
 76
     1
 77
     6
 78
     2
 67
     7
 79
     5
170
     0
171
     0
290
     0
174
     0
 93
        1
 44
0.0
173
     0
291
     1
 45
0.0
  0
VISUALSTYLE
  5
BC06000000000051
102
{ACAD_REACTORS
330
BC06000000000048
102
}
330
BC06000000000048
100
AcDbVisualStyle
  2
Realistic
 70
     8
 71
     2
 72
     3
 73
     0
 90
        2
 40
0.6
 41
30.0
 62
     5
 63
     7
421
 16777215
 74
     0
 91
        0
 64
     7
 65
   257
 75
     1
175
     1
 42
1.0
 92
        8
 66
   257
 43
1.0
 76
     1
 77
     6
 78
     2
 67
     7
 79
     3
170
     0
171
     0
290
     0
174
     0
 93
       13
 44
0.0
173
     0
291
     0
 45
0.0
  0
VISUALSTYLE
  5
BC06000000000060
102
{ACAD_REACTORS
330
BC06000000000048
102
}
330
BC06000000000048
100
AcDbVisualStyle
  2
Shaded
 70
    27
 71
     2
 72
     2
 73
     1
 90
        2
 40
0.6
 41
30.0
 62
     5
 63
     7
421
 16777215
 74
     0
 91
        4
 64
     7
 65
   257
 75
     1
175
     1
 42
1.0
 92
        8
 66
   257
 43
1.0
 76
     1
 77
     6
 78
     2
 67
     8
425
  7895160
 79
     3
170
     0
171
     0
290
     0
174
     0
 93
        5
 44
0.0
173
     0
291
     0
 45
0.0
  0
VISUALSTYLE
  5
BC0600000000005F
102
{ACAD_REACTORS
330
BC06000000000048
102
}
330
BC06000000000048
100
AcDbVisualStyle
  2
Shaded with edges
 70
    26
 71
     2
 72
     2
 73
     1
 90
        2
 40
0.6
 41
30.0
 62
     5
 63
     7
421
 16777215
 74
     1
 91
       10
 64
     7
 65
   257
 75
     2
175
     1
 42
1.0
 92
        8
 66
   257
 43
1.0
 76
     1
 77
     6
 78
     2
 67
     7
 79
     3
170
     0
171
     0
290
     0
174
     0
 93
        5
 44
0.0
173
     0
291
     0
 45
0.0
  0
VISUALSTYLE
  5
BC0600000000005C
102
{ACAD_REACTORS
330
BC06000000000048
102
}
330
BC06000000000048
100
AcDbVisualStyle
  2
Shades of Gray
 70
    23
 71
     2
 72
     2
 73
     3
 90
        0
 40
0.6
 41
30.0
 62
     5
 63
     7
421
 16777215
 74
     2
 91
        2
 64
     7
 65
     7
 75
     1
175
     1
 42
40.0
 92
        8
 66
     7
 43
1.0
 76
     1
 77
     6
 78
     2
 67
     7
 79
     3
170
     0
171
     0
290
     0
174
     0
 93
        1
 44
0.0
173
     0
291
     0
 45
0.0
  0
VISUALSTYLE
  5
BC0600000000005D
102
{ACAD_REACTORS
330
BC06000000000048
102
}
330
BC06000000000048
100
AcDbVisualStyle
  2
Sketchy
 70
    24
 71
     1
 72
     2
 73
     2
 90
        0
 40
0.6
 41
30.0
 62
     5
 63
     7
421
 16777215
 74
     2
 91
        2
 64
     7
 65
     7
 75
     1
175
     1
 42
40.0
 92
       11
 66
     7
 43
1.0
 76
     1
 77
     6
 78
     2
 67
     7
 79
     6
170
     0
171
     0
290
     0
174
     0
 93
        1
 44
0.0
173
     0
291
     0
 45
0.0
  0
VISUALSTYLE
  5
BC06000000000055
102
{ACAD_REACTORS
330
BC06000000000048
102
}
330
BC06000000000048
100
AcDbVisualStyle
  2
Thicken
 70
    13
 71
     2
 72
     2
 73
     0
 90
        0
 40
0.6
 41
30.0
 62
     5
 63
     7
421
 16777215
 74
     1
 91
        4
 64
     7
 65
   257
 75
     1
175
     1
 42
1.0
 92
       12
 66
     7
 43
1.0
 76
     1
 77
     6
 78
     2
 67
     7
 79
     5
170
     0
171
     0
290
     0
174
     0
 93
        1
 44
0.0
173
     0
291
     1
 45
0.0
  0
VISUALSTYLE
  5
BC0600000000004E
102
{ACAD_REACTORS
330
BC06000000000048
102
}
330
BC06000000000048
100
AcDbVisualStyle
  2
Wireframe
 70
     5
 71
     0
 72
     2
 73
     0
 90
        0
 40
0.6
 41
30.0
 62
     5
 63
     7
421
 16777215
 74
     1
 91
        4
 64
     7
 65
   257
 75
     1
175
     1
 42
1.0
 92
        0
 66
   257
 43
1.0
 76
     1
 77
     6
 78
     2
 67
     7
 79
     3
170
     0
171
     0
290
     0
174
     0
 93
        1
 44
0.0
173
     0
291
     0
 45
0.0
  0
VISUALSTYLE
  5
BC0600000000005E
102
{ACAD_REACTORS
330
BC06000000000048
102
}
330
BC06000000000048
100
AcDbVisualStyle
  2
X-Ray
 70
    25
 71
     2
 72
     2
 73
     1
 90
        1
 40
0.5
 41
30.0
 62
     5
 63
     7
421
 16777215
 74
     1
 91
        0
 64
     7
 65
   257
 75
     1
175
     1
 42
1.0
 92
        8
 66
     7
 43
1.0
 76
     1
 77
     6
 78
     2
 67
     7
 79
     3
170
     0
171
     0
290
     0
174
     0
 93
       13
 44
0.0
173
     0
291
     0
 45
0.0
  0
DICTIONARYVAR
  5
BC060000000001CD
102
{ACAD_REACTORS
330
BC060000000001CC
102
}
330
BC060000000001CC
100
DictionaryVariables
280
     0
  1
1:1
  0
DICTIONARYVAR
  5
BC060000000001D2
102
{ACAD_REACTORS
330
BC060000000001CC
102
}
330
BC060000000001CC
100
DictionaryVariables
280
     0
  1
Standard
  0
DICTIONARYVAR
  5
BC060000000001CE
102
{ACAD_REACTORS
330
BC060000000001CC
102
}
330
BC060000000001CC
100
DictionaryVariables
280
     0
  1
0
  0
DICTIONARYVAR
  5
BC060000000001D3
102
{ACAD_REACTORS
330
BC060000000001CC
102
}
330
BC060000000001CC
100
DictionaryVariables
280
     0
  1
0
  0
DICTIONARY
  5
BC060000000001D6
330
BC06000000000084
100
AcDbDictionary
280
     1
281
     1
  3
ACAD_ROUNDTRIP_2008_TABLESTYLE_CELLSTYLEMAP
360
BC060000000001D7
  0
CELLSTYLEMAP
  5
BC060000000001D7
102
{ACAD_REACTORS
330
BC060000000001D6
102
}
330
BC060000000001D6
100
AcDbCellStyleMap
 90
        3
300
CELLSTYLE
  1
TABLEFORMAT_BEGIN
 90
        5
170
     1
 91
        0
 92
        0
 62
   257
 93
        1
300
CONTENTFORMAT
  1
CONTENTFORMAT_BEGIN
 90
        0
 91
        0
 92
        4
 93
        0
300

 40
0.0
140
1.0
 94
        5
 62
     0
340
11C71
144
0.25
309
CONTENTFORMAT_END
171
     1
301
MARGIN
  1
CELLMARGIN_BEGIN
 40
0.06
 40
0.06
 40
0.06
 40
0.06
 40
0.06
 40
0.06
309
CELLMARGIN_END
 94
        6
 95
        1
302
GRIDFORMAT
  1
GRIDFORMAT_BEGIN
 90
        0
 91
        1
 62
     0
 92
       -2
340
11C73
 93
        0
 40
0.045
309
GRIDFORMAT_END
 95
        2
302
GRIDFORMAT
  1
GRIDFORMAT_BEGIN
 90
        0
 91
        1
 62
     0
 92
       -2
340
11C73
 93
        0
 40
0.045
309
GRIDFORMAT_END
 95
        4
302
GRIDFORMAT
  1
GRIDFORMAT_BEGIN
 90
        0
 91
        1
 62
     0
 92
       -2
340
11C73
 93
        0
 40
0.045
309
GRIDFORMAT_END
 95
        8
302
GRIDFORMAT
  1
GRIDFORMAT_BEGIN
 90
        0
 91
        1
 62
     0
 92
       -2
340
11C73
 93
        0
 40
0.045
309
GRIDFORMAT_END
 95
       16
302
GRIDFORMAT
  1
GRIDFORMAT_BEGIN
 90
        0
 91
        1
 62
     0
 92
       -2
340
11C73
 93
        0
 40
0.045
309
GRIDFORMAT_END
 95
       32
302
GRIDFORMAT
  1
GRIDFORMAT_BEGIN
 90
        0
 91
        1
 62
     0
 92
       -2
340
11C73
 93
        0
 40
0.045
309
GRIDFORMAT_END
309
TABLEFORMAT_END
  1
CELLSTYLE_BEGIN
 90
        1
 91
        1
300
_TITLE
309
CELLSTYLE_END
300
CELLSTYLE
  1
TABLEFORMAT_BEGIN
 90
        5
170
     1
 91
        0
 92
        0
 62
   257
 93
        1
300
CONTENTFORMAT
  1
CONTENTFORMAT_BEGIN
 90
        0
 91
        0
 92
        4
 93
        0
300

 40
0.0
140
1.0
 94
        5
 62
     0
340
11C71
144
0.18
309
CONTENTFORMAT_END
171
     1
301
MARGIN
  1
CELLMARGIN_BEGIN
 40
0.06
 40
0.06
 40
0.06
 40
0.06
 40
0.06
 40
0.06
309
CELLMARGIN_END
 94
        6
 95
        1
302
GRIDFORMAT
  1
GRIDFORMAT_BEGIN
 90
        0
 91
        1
 62
     0
 92
       -2
340
11C73
 93
        0
 40
0.045
309
GRIDFORMAT_END
 95
        2
302
GRIDFORMAT
  1
GRIDFORMAT_BEGIN
 90
        0
 91
        1
 62
     0
 92
       -2
340
11C73
 93
        0
 40
0.045
309
GRIDFORMAT_END
 95
        4
302
GRIDFORMAT
  1
GRIDFORMAT_BEGIN
 90
        0
 91
        1
 62
     0
 92
       -2
340
11C73
 93
        0
 40
0.045
309
GRIDFORMAT_END
 95
        8
302
GRIDFORMAT
  1
GRIDFORMAT_BEGIN
 90
        0
 91
        1
 62
     0
 92
       -2
340
11C73
 93
        0
 40
0.045
309
GRIDFORMAT_END
 95
       16
302
GRIDFORMAT
  1
GRIDFORMAT_BEGIN
 90
        0
 91
        1
 62
     0
 92
       -2
340
11C73
 93
        0
 40
0.045
309
GRIDFORMAT_END
 95
       32
302
GRIDFORMAT
  1
GRIDFORMAT_BEGIN
 90
        0
 91
        1
 62
     0
 92
       -2
340
11C73
 93
        0
 40
0.045
309
GRIDFORMAT_END
309
TABLEFORMAT_END
  1
CELLSTYLE_BEGIN
 90
        2
 91
        1
300
_HEADER
309
CELLSTYLE_END
300
CELLSTYLE
  1
TABLEFORMAT_BEGIN
 90
        5
170
     1
 91
        0
 92
        0
 62
   257
 93
        1
300
CONTENTFORMAT
  1
CONTENTFORMAT_BEGIN
 90
        0
 91
        0
 92
        4
 93
        0
300

 40
0.0
140
1.0
 94
        2
 62
     0
340
11C71
144
0.18
309
CONTENTFORMAT_END
171
     1
301
MARGIN
  1
CELLMARGIN_BEGIN
 40
0.06
 40
0.06
 40
0.06
 40
0.06
 40
0.06
 40
0.06
309
CELLMARGIN_END
 94
        6
 95
        1
302
GRIDFORMAT
  1
GRIDFORMAT_BEGIN
 90
        0
 91
        1
 62
     0
 92
       -2
340
11C73
 93
        0
 40
0.045
309
GRIDFORMAT_END
 95
        2
302
GRIDFORMAT
  1
GRIDFORMAT_BEGIN
 90
        0
 91
        1
 62
     0
 92
       -2
340
11C73
 93
        0
 40
0.045
309
GRIDFORMAT_END
 95
        4
302
GRIDFORMAT
  1
GRIDFORMAT_BEGIN
 90
        0
 91
        1
 62
     0
 92
       -2
340
11C73
 93
        0
 40
0.045
309
GRIDFORMAT_END
 95
        8
302
GRIDFORMAT
  1
GRIDFORMAT_BEGIN
 90
        0
 91
        1
 62
     0
 92
       -2
340
11C73
 93
        0
 40
0.045
309
GRIDFORMAT_END
 95
       16
302
GRIDFORMAT
  1
GRIDFORMAT_BEGIN
 90
        0
 91
        1
 62
     0
 92
       -2
340
11C73
 93
        0
 40
0.045
309
GRIDFORMAT_END
 95
       32
302
GRIDFORMAT
  1
GRIDFORMAT_BEGIN
 90
        0
 91
        1
 62
     0
 92
       -2
340
11C73
 93
        0
 40
0.045
309
GRIDFORMAT_END
309
TABLEFORMAT_END
  1
CELLSTYLE_BEGIN
 90
        3
 91
        2
300
_DATA
309
CELLSTYLE_END
  0
ENDSEC
  0
EOF
